<?xml version="1.0" standalone="no"?>
<!DOCTYPE svg PUBLIC "-//W3C//DTD SVG 1.1//EN" "http://www.w3.org/Graphics/SVG/1.1/DTD/svg11.dtd" >
<svg xmlns="http://www.w3.org/2000/svg" xmlns:xlink="http://www.w3.org/1999/xlink" version="1.1">
<metadata>
Created by FontForge 20161013 at Wed Jul  1 10:10:14 2009
 By ,,,
(c) Copyright DynaComware Corp. 2009
</metadata>
<defs>
<font id="DFPHeiW7" horiz-adv-x="1024" vert-adv-y="1024" >
  <font-face 
    font-family="DFPHeiW7-GB"
    font-weight="400"
    font-stretch="normal"
    units-per-em="1024"
    panose-1="2 11 7 0 0 0 0 0 0 0"
    ascent="880"
    descent="-144"
    x-height="434"
    cap-height="753"
    bbox="0 -144 1024 880"
    underline-thickness="50"
    underline-position="-185"
    unicode-range="U+0001-FFE5"
  />
<missing-glyph 
 />
    <glyph glyph-name=".notdef" 
 />
    <glyph glyph-name="glyph1" horiz-adv-x="512" 
 />
    <glyph glyph-name="glyph2" horiz-adv-x="512" 
 />
    <glyph glyph-name="uni0001" 
 />
    <glyph glyph-name="uni0002" 
 />
    <glyph glyph-name="uni0003" 
 />
    <glyph glyph-name="uni0004" 
 />
    <glyph glyph-name="uni0005" 
 />
    <glyph glyph-name="uni0006" 
 />
    <glyph glyph-name="uni0007" 
 />
    <glyph glyph-name="uni0008" 
 />
    <glyph glyph-name="uni0009" unicode="&#x9;" 
 />
    <glyph glyph-name="uni000A" unicode="&#xa;" 
 />
    <glyph glyph-name="uni000B" 
 />
    <glyph glyph-name="uni000C" 
 />
    <glyph glyph-name="uni000D" unicode="&#xd;" 
 />
    <glyph glyph-name="uni000E" 
 />
    <glyph glyph-name="uni000F" 
 />
    <glyph glyph-name="uni0010" 
 />
    <glyph glyph-name="uni0011" 
 />
    <glyph glyph-name="uni0012" 
 />
    <glyph glyph-name="uni0013" 
 />
    <glyph glyph-name="uni0014" 
 />
    <glyph glyph-name="uni0015" 
 />
    <glyph glyph-name="uni0016" 
 />
    <glyph glyph-name="uni0017" 
 />
    <glyph glyph-name="uni0018" 
 />
    <glyph glyph-name="uni0019" 
 />
    <glyph glyph-name="uni001A" 
 />
    <glyph glyph-name="uni001B" 
 />
    <glyph glyph-name="uni001C" 
 />
    <glyph glyph-name="uni001D" 
 />
    <glyph glyph-name="uni001E" 
 />
    <glyph glyph-name="uni001F" 
 />
    <glyph glyph-name="space" unicode=" " horiz-adv-x="341" 
 />
    <glyph glyph-name="exclam" unicode="!" horiz-adv-x="341" 
d="M227 632l-23 -445h-67l-23 445h113zM221 -1h-101v105h101v-105z" />
    <glyph glyph-name="quotedbl" unicode="&#x22;" horiz-adv-x="264" 
d="M233 639l-17 -214h-53l-18 214h88zM120 639l-18 -214h-54l-17 214h89z" />
    <glyph glyph-name="numbersign" unicode="#" horiz-adv-x="522" 
d="M499 468l-6 -69h-92l-19 -158h79l-6 -70h-81l-19 -163h-76l18 163h-109l-19 -163h-77l21 163h-89l6 70h91l19 158h-79l7 69h79l20 166h77l-19 -166h109l19 166h77l-20 -166h89zM325 399h-109l-18 -158h108z" />
    <glyph glyph-name="dollar" unicode="$" horiz-adv-x="522" 
d="M488 180q0 -79 -59 -128q-52 -42 -135 -52v-64h-66v63q-156 12 -194 169l74 29q27 -109 120 -120v225q-83 29 -119 57q-58 44 -58 113q0 76 52 120q47 38 125 45v66h66v-67q135 -12 181 -144l-75 -31q-28 87 -106 98v-186q91 -31 133 -64q61 -51 61 -129zM228 397v164
q-94 -12 -94 -89q0 -39 94 -75zM406 180q0 56 -112 99v-201q46 7 76 31q36 29 36 71z" />
    <glyph glyph-name="percent" unicode="%" horiz-adv-x="748" 
d="M707 163q0 -71 -36 -116q-39 -48 -108 -48q-71 0 -109 47q-35 43 -35 117q0 71 36 118q40 53 108 53q69 0 108 -53q36 -47 36 -118zM693 593l-594 -594l-45 46l594 594zM329 469q0 -71 -36 -115q-39 -49 -109 -49q-71 0 -108 48q-35 43 -35 116q0 72 35 118q39 52 108 52
q70 0 109 -52q36 -47 36 -118zM634 164q0 101 -71 101q-37 0 -56 -34q-15 -28 -15 -67q0 -38 16 -63q18 -30 55 -30q71 0 71 93zM255 469q0 102 -71 102q-36 0 -55 -34q-15 -28 -15 -68q0 -38 15 -63q19 -30 55 -30q71 0 71 93z" />
    <glyph glyph-name="ampersand" unicode="&#x26;" horiz-adv-x="636" 
d="M595 327h-53q-13 -103 -54 -180q57 -39 101 -60l-35 -59q-50 22 -108 60q-84 -89 -198 -89q-90 0 -146 44q-61 49 -61 137q0 93 126 180q-57 85 -57 142q0 66 43 103q40 33 107 33q59 0 96 -38q38 -37 38 -96q0 -50 -41 -95q-26 -28 -84 -67q62 -69 161 -150
q28 57 38 135h-55v72h182v-72zM322 504q0 65 -66 65q-73 0 -73 -67q0 -39 43 -103q45 29 61 43q35 31 35 62zM388 131q-105 85 -179 172q-94 -64 -94 -123q0 -111 133 -111q77 0 140 62z" />
    <glyph glyph-name="quotesingle" unicode="'" horiz-adv-x="151" 
d="M120 639l-18 -214h-54l-17 214h89z" />
    <glyph glyph-name="parenleft" unicode="(" horiz-adv-x="341" 
d="M282 -40l-63 -52q-160 177 -160 413q0 235 160 413l63 -53q-143 -150 -143 -360t143 -361z" />
    <glyph glyph-name="parenright" unicode=")" horiz-adv-x="341" 
d="M282 321q0 -236 -160 -413l-63 52q143 151 143 361t-143 360l63 53q160 -178 160 -413z" />
    <glyph glyph-name="asterisk" unicode="*" horiz-adv-x="475" 
d="M444 458l-173 -34l120 -128l-68 -51l-85 155l-85 -155l-70 51l121 128l-173 34l25 81l160 -75l-21 175h85l-22 -175l160 76z" />
    <glyph glyph-name="plus" unicode="+" horiz-adv-x="531" 
d="M490 183h-185v-175h-79v175h-185v79h185v172h79v-172h185v-79z" />
    <glyph glyph-name="comma" unicode="," horiz-adv-x="261" 
d="M185 16q0 -78 -71 -133l-31 38q43 33 51 78h-58v111h109v-94z" />
    <glyph glyph-name="hyphen" unicode="-" horiz-adv-x="341" 
d="M299 183h-256v79h256v-79z" />
    <glyph glyph-name="period" unicode="." horiz-adv-x="261" 
d="M185 -1h-109v111h109v-111z" />
    <glyph glyph-name="slash" unicode="/" horiz-adv-x="285" 
d="M274 703l-187 -785l-77 19l188 784z" />
    <glyph glyph-name="zero" unicode="0" horiz-adv-x="522" 
d="M466 320q0 -321 -205 -321t-205 321q0 319 205 319t205 -319zM372 320q0 100 -15 148q-24 82 -96 82q-110 0 -110 -230q0 -232 110 -232q111 0 111 232z" />
    <glyph glyph-name="one" unicode="1" horiz-adv-x="522" 
d="M362 8h-88v480h-114v56q105 0 136 90h66v-626z" />
    <glyph glyph-name="two" unicode="2" horiz-adv-x="522" 
d="M455 477q0 -64 -45 -128q-29 -41 -92 -100q-106 -100 -131 -155h267v-86h-386q21 94 71 169q40 58 117 131q51 47 72 75q32 46 32 94q0 73 -100 73q-98 0 -105 -142l-86 33q9 90 56 142q50 56 135 56q83 0 134 -38q61 -43 61 -124z" />
    <glyph glyph-name="three" unicode="3" horiz-adv-x="522" 
d="M456 180q0 -82 -61 -133q-56 -48 -137 -48q-156 0 -191 159l86 28q21 -103 105 -103q46 0 75 26q28 26 28 71q0 46 -25 75q-27 31 -71 31h-79v80h68q33 0 61 35q28 34 28 69q0 80 -81 80q-74 0 -89 -93l-85 27q14 72 59 113q47 42 115 42q79 0 127 -45q47 -45 47 -124
q0 -86 -69 -134q89 -46 89 -156z" />
    <glyph glyph-name="four" unicode="4" horiz-adv-x="522" 
d="M468 149h-76v-141h-91v141h-247v81l257 404h81v-399h76v-86zM301 235v224l-140 -224h140z" />
    <glyph glyph-name="five" unicode="5" horiz-adv-x="522" 
d="M454 230q0 -98 -52 -161q-54 -70 -148 -70q-133 0 -185 144l79 34q35 -89 106 -89q106 0 106 142q0 129 -88 129q-65 0 -98 -69h-82v344h338v-86h-247v-127q36 27 89 27q90 0 140 -67q42 -59 42 -151z" />
    <glyph glyph-name="six" unicode="6" horiz-adv-x="522" 
d="M470 212q0 -90 -58 -151q-60 -63 -148 -63q-119 0 -172 104q-40 78 -40 207q0 329 212 329q132 0 187 -137l-84 -33q-20 47 -39 63q-22 19 -64 19q-99 0 -117 -182q58 44 122 44q92 0 147 -54q54 -53 54 -146zM377 212q0 111 -108 111q-33 0 -67 -15q-37 -17 -56 -42
q11 -179 118 -179q52 0 82 35q31 36 31 90z" />
    <glyph glyph-name="seven" unicode="7" horiz-adv-x="522" 
d="M476 554q-122 -120 -160 -247q-30 -100 -30 -299h-97q0 182 30 290q37 133 138 249h-311v87h430v-80z" />
    <glyph glyph-name="eight" unicode="8" horiz-adv-x="522" 
d="M463 185q0 -91 -57 -140q-53 -46 -143 -46t-144 46q-60 50 -60 140q0 104 92 164q-70 48 -70 128q0 79 52 122q48 40 128 40t128 -40q52 -43 52 -122q0 -80 -69 -128q91 -60 91 -164zM348 471q0 78 -87 78t-87 -78q0 -36 25 -59q25 -22 63 -22q37 0 62 22q24 23 24 59z
M369 188q0 115 -109 115q-105 0 -105 -115q0 -100 108 -100q106 0 106 100z" />
    <glyph glyph-name="nine" unicode="9" horiz-adv-x="522" 
d="M451 312q0 -313 -205 -313q-112 0 -160 127l81 39q31 -77 79 -77q93 0 108 164q-47 -38 -103 -38q-86 0 -132 56q-47 55 -47 143q0 92 45 155q50 71 140 71q119 0 165 -114q29 -75 29 -213zM357 365q-6 185 -100 185q-46 0 -71 -46q-21 -38 -21 -91q0 -111 93 -111
q55 0 99 63z" />
    <glyph glyph-name="colon" unicode=":" horiz-adv-x="261" 
d="M185 247h-109v111h109v-111zM185 -1h-109v111h109v-111z" />
    <glyph glyph-name="semicolon" unicode=";" horiz-adv-x="261" 
d="M185 247h-109v111h109v-111zM185 16q0 -78 -71 -133l-31 38q43 33 51 78h-58v111h109v-94z" />
    <glyph glyph-name="less" unicode="&#x3c;" horiz-adv-x="531" 
d="M443 79l-43 -65l-313 207l313 206l43 -65l-215 -141z" />
    <glyph glyph-name="equal" unicode="=" horiz-adv-x="531" 
d="M470 262h-409v78h409v-78zM470 103h-409v79h409v-79z" />
    <glyph glyph-name="greater" unicode="&#x3e;" horiz-adv-x="531" 
d="M443 221l-313 -207l-43 65l215 142l-215 141l43 65z" />
    <glyph glyph-name="question" unicode="?" horiz-adv-x="409" 
d="M368 497q0 -49 -32 -91q-34 -36 -67 -72q-54 -59 -54 -147h-77q0 111 77 195q69 75 69 115q0 31 -24 47q-22 15 -55 15q-79 0 -82 -83h-82q3 73 46 115q43 43 118 43q66 0 112 -35q51 -38 51 -102zM228 -1h-100v105h100v-105z" />
    <glyph glyph-name="at" unicode="@" horiz-adv-x="773" 
d="M732 351q0 -87 -57 -154q-61 -70 -147 -70q-65 0 -84 65q-50 -55 -123 -55q-62 0 -96 41q-35 40 -35 103q0 93 69 165t161 72q62 0 93 -58l8 29h73q-86 -254 -86 -276q0 -13 20 -13q56 0 93 47q36 47 36 104q0 104 -76 163q-71 54 -179 54q-112 0 -195 -61
q-91 -67 -91 -177q0 -112 81 -185q81 -74 194 -74q140 0 222 70l50 -53q-103 -89 -272 -89q-145 0 -246 93q-104 95 -104 238t112 229q103 80 249 80q137 0 230 -74q100 -81 100 -214zM478 361q0 32 -13 55q-15 29 -45 29q-69 0 -112 -52t-43 -122q0 -25 19 -43
q18 -19 44 -19q45 0 89 49q61 68 61 103z" />
    <glyph glyph-name="A" unicode="A" horiz-adv-x="691" 
d="M650 8h-98l-71 172h-271l-71 -172h-98l259 626h90zM444 266l-99 239l-98 -239h197z" />
    <glyph glyph-name="B" unicode="B" horiz-adv-x="532" 
d="M492 186q0 -88 -77 -137q-66 -41 -155 -41h-219v626h223q211 0 211 -167q0 -82 -65 -130q82 -48 82 -151zM381 467q0 80 -119 80h-130v-171h114q52 0 90 22q45 24 45 69zM397 186q0 54 -43 81q-37 23 -97 23h-125v-196h125q52 0 92 21q48 26 48 71z" />
    <glyph glyph-name="C" unicode="C" horiz-adv-x="578" 
d="M537 476l-88 -33q-42 106 -141 106q-82 0 -131 -80q-42 -69 -42 -159q0 -88 37 -150q44 -72 123 -72q56 0 92 33q31 28 55 91l86 -34q-72 -179 -233 -179q-121 0 -192 99q-62 88 -62 212q0 128 68 222q75 107 199 107q165 0 229 -163z" />
    <glyph glyph-name="D" unicode="D" horiz-adv-x="596" 
d="M555 316q0 -151 -93 -232q-89 -76 -240 -76h-181v626h181q333 0 333 -318zM461 316q0 127 -55 179q-56 52 -184 52h-89v-453h89q113 0 175 55q64 55 64 167z" />
    <glyph glyph-name="E" unicode="E" horiz-adv-x="477" 
d="M436 8h-395v626h395v-87h-304v-177h269v-87h-269v-189h304v-86z" />
    <glyph glyph-name="F" unicode="F" horiz-adv-x="474" 
d="M433 547h-301v-177h264v-87h-264v-275h-91v626h392v-87z" />
    <glyph glyph-name="G" unicode="G" horiz-adv-x="622" 
d="M581 489l-87 -36q-58 97 -166 97q-96 0 -148 -76q-45 -65 -45 -167q0 -87 47 -150q51 -68 134 -68q74 0 117 54q38 48 40 126h-158v86h250v-347h-92v57q-66 -66 -157 -66q-125 0 -202 94q-73 88 -73 214q0 141 71 232q77 100 216 100q164 0 253 -150z" />
    <glyph glyph-name="H" unicode="H" horiz-adv-x="565" 
d="M524 8h-91v270h-301v-270h-91v626h91v-269h301v269h91v-626z" />
    <glyph glyph-name="I" unicode="I" horiz-adv-x="341" 
d="M216 8h-91v626h91v-626z" />
    <glyph glyph-name="J" unicode="J" horiz-adv-x="500" 
d="M459 229q0 -102 -53 -164q-57 -66 -156 -66q-169 0 -209 175l87 19q26 -105 122 -105q118 0 118 142v402h91v-403z" />
    <glyph glyph-name="K" unicode="K" horiz-adv-x="599" 
d="M558 8h-121l-242 280l-62 -62v-218h-92v626h92v-283l284 283h121l-279 -280z" />
    <glyph glyph-name="L" unicode="L" horiz-adv-x="499" 
d="M458 8h-417v626h91v-540h326v-86z" />
    <glyph glyph-name="M" unicode="M" horiz-adv-x="719" 
d="M678 8h-92v449l-185 -449h-85l-184 449v-449h-91v626h114l204 -505l205 505h114v-626z" />
    <glyph glyph-name="N" unicode="N" horiz-adv-x="585" 
d="M544 8h-100l-311 477v-477h-92v626h99l312 -477v477h92v-626z" />
    <glyph glyph-name="O" unicode="O" horiz-adv-x="623" 
d="M582 320q0 -133 -67 -221q-74 -100 -204 -100t-203 100q-67 88 -67 221t67 221q73 98 203 98t204 -98q67 -88 67 -221zM486 320q0 95 -40 158q-47 72 -135 72t-135 -72q-41 -63 -41 -158q0 -94 42 -158q47 -75 134 -75t134 74q41 64 41 159z" />
    <glyph glyph-name="P" unicode="P" horiz-adv-x="525" 
d="M484 455q0 -89 -67 -137q-60 -42 -150 -42h-134v-268h-92v626h226q92 0 151 -41q66 -47 66 -138zM390 455q0 92 -126 92h-131v-185h131q126 0 126 93z" />
    <glyph glyph-name="Q" unicode="Q" horiz-adv-x="663" 
d="M622 31l-67 -64q-47 51 -84 87q-71 -55 -160 -55q-130 0 -203 100q-67 88 -67 222q0 133 67 221q73 98 203 98t205 -98q66 -88 66 -221q0 -113 -51 -199q31 -29 91 -91zM487 321q0 96 -40 159q-47 71 -136 71t-136 -71q-40 -63 -40 -159q0 -97 41 -160q46 -73 135 -73
q49 0 92 29q-17 17 -59 53l62 66q26 -22 56 -49q25 54 25 134z" />
    <glyph glyph-name="R" unicode="R" horiz-adv-x="547" 
d="M506 8h-104l-144 268h-125v-268h-92v626h225q91 0 151 -41q67 -47 67 -138q0 -123 -129 -166zM390 455q0 92 -126 92h-131v-185h131q126 0 126 93z" />
    <glyph glyph-name="S" unicode="S" horiz-adv-x="537" 
d="M496 183q0 -93 -75 -142q-64 -42 -159 -42q-178 0 -221 174l81 33q32 -123 140 -123q56 0 96 23q49 26 49 77q0 57 -147 107q-98 34 -134 59q-68 46 -68 122q0 87 65 130q54 38 143 38q85 0 137 -33q53 -35 81 -118l-81 -34q-20 57 -50 79q-29 21 -87 21q-118 0 -118 -83
q0 -27 57 -56q93 -37 187 -75q104 -52 104 -157z" />
    <glyph glyph-name="T" unicode="T" horiz-adv-x="578" 
d="M537 547h-202v-539h-92v539h-202v87h496v-87z" />
    <glyph glyph-name="U" unicode="U" horiz-adv-x="580" 
d="M539 268q0 -133 -58 -199q-60 -70 -192 -70t-192 70q-56 65 -56 199v364h92v-364q0 -98 30 -136q34 -44 126 -44t127 43q29 39 29 137v364h94v-364z" />
    <glyph glyph-name="V" unicode="V" horiz-adv-x="654" 
d="M613 634l-242 -626h-88l-242 626h97l189 -498l189 498h97z" />
    <glyph glyph-name="W" unicode="W" horiz-adv-x="862" 
d="M821 634l-176 -626h-89l-125 463l-125 -463h-89l-176 626h96l124 -470l127 470h86l127 -470l124 470h96z" />
    <glyph glyph-name="X" unicode="X" horiz-adv-x="686" 
d="M645 8h-113l-188 257l-190 -257h-113l246 332l-215 294h110l162 -218l160 218h111l-216 -294z" />
    <glyph glyph-name="Y" unicode="Y" horiz-adv-x="674" 
d="M633 634l-250 -338v-288h-92v287l-250 339h113l183 -249l185 249h111z" />
    <glyph glyph-name="Z" unicode="Z" horiz-adv-x="520" 
d="M479 8h-438v81l328 458h-318v87h428v-81l-326 -459h326v-86z" />
    <glyph glyph-name="bracketleft" unicode="[" horiz-adv-x="341" 
d="M285 -91h-229v825h229v-79h-150v-668h150v-78z" />
    <glyph glyph-name="backslash" unicode="\" horiz-adv-x="285" 
d="M274 -63l-76 -19l-188 785l77 18z" />
    <glyph glyph-name="bracketright" unicode="]" horiz-adv-x="341" 
d="M285 -91h-229v78h150v668h-150v79h229v-825z" />
    <glyph glyph-name="asciicircum" unicode="^" horiz-adv-x="418" 
d="M392 343h-74l-109 219l-110 -219h-73l150 296h66z" />
    <glyph glyph-name="underscore" unicode="_" horiz-adv-x="512" 
d="M512 -144h-512v79h512v-79z" />
    <glyph glyph-name="grave" unicode="`" horiz-adv-x="341" 
d="M268 511l-35 -37l-160 132l59 61z" />
    <glyph glyph-name="a" unicode="a" horiz-adv-x="446" 
d="M416 8h-90q-12 27 -15 48q-61 -57 -139 -57q-57 0 -96 29q-45 32 -45 89q0 154 276 164q-10 73 -83 73q-57 0 -90 -57l-85 38q59 104 175 104q105 0 145 -64q30 -50 30 -158v-46q-1 -30 -1 -45q0 -72 18 -118zM306 197q-182 -3 -182 -80q0 -32 48 -32q51 0 88 31
q37 32 46 81z" />
    <glyph glyph-name="b" unicode="b" horiz-adv-x="474" 
d="M443 223q0 -87 -49 -152q-54 -72 -141 -72q-76 0 -130 51v-42h-92v626h92v-240q48 45 125 45q87 0 141 -65q54 -63 54 -151zM349 223q0 56 -27 92q-28 36 -80 36q-53 0 -86 -38t-33 -93q0 -62 33 -98q31 -37 91 -37q49 0 78 45q24 39 24 93z" />
    <glyph glyph-name="c" unicode="c" horiz-adv-x="440" 
d="M410 139q-64 -140 -185 -140q-88 0 -143 68q-51 62 -51 150q0 93 50 155q54 67 144 67q118 0 182 -118l-81 -35q-36 68 -101 68q-47 0 -75 -44q-26 -39 -26 -93q0 -49 27 -89q28 -43 74 -43q65 0 104 89z" />
    <glyph glyph-name="d" unicode="d" horiz-adv-x="474" 
d="M443 8h-92v42q-53 -51 -130 -51q-87 0 -141 72q-49 65 -49 152q0 88 55 151q54 65 140 65q77 0 125 -45v240h92v-626zM351 220q0 55 -33 93q-32 38 -86 38q-52 0 -79 -36q-28 -36 -28 -92q0 -54 25 -93q28 -45 77 -45q60 0 92 37q32 36 32 98z" />
    <glyph glyph-name="e" unicode="e" horiz-adv-x="437" 
d="M407 124q-75 -125 -189 -125q-92 0 -142 69q-45 61 -45 155q0 91 48 151q52 65 142 65q83 0 133 -59q50 -57 50 -141v-42h-281q13 -112 95 -112q64 0 108 80zM306 283q-23 71 -85 71q-65 0 -91 -71h176z" />
    <glyph glyph-name="f" unicode="f" horiz-adv-x="344" 
d="M313 358h-108v-350h-90v350h-84v87h84q-1 96 10 128q22 61 104 61h84v-86h-61q-28 0 -37 -10q-10 -9 -10 -37v-56h108v-87z" />
    <glyph glyph-name="g" unicode="g" horiz-adv-x="451" 
d="M420 62q0 -88 -52 -145q-53 -56 -139 -56q-125 0 -183 110l80 39q36 -63 103 -63q49 0 74 32q26 32 26 83v28q-48 -46 -107 -46q-81 0 -136 58q-55 56 -55 138q0 85 55 142q54 57 136 57q59 0 107 -37v32h91v-372zM328 244q0 48 -29 79q-29 30 -77 30q-42 0 -70 -34
t-28 -79q0 -42 29 -75q28 -34 69 -34q49 0 77 32q29 31 29 81z" />
    <glyph glyph-name="h" unicode="h" horiz-adv-x="450" 
d="M419 8h-91v251q0 53 -18 72q-17 21 -66 21q-78 0 -122 -96v-248h-91v626h91v-246q52 51 122 51q175 0 175 -180v-251z" />
    <glyph glyph-name="i" unicode="i" horiz-adv-x="307" 
d="M199 548h-91v86h91v-86zM200 8h-91v426h91v-426z" />
    <glyph glyph-name="j" unicode="j" horiz-adv-x="261" 
d="M229 548h-91v86h91v-86zM230 6q0 -66 -28 -105q-32 -44 -92 -44h-79v86h49q35 0 47 13t12 50v428h91v-428z" />
    <glyph glyph-name="k" unicode="k" horiz-adv-x="437" 
d="M407 8h-105l-134 210l-46 -45v-165h-91v626h91v-347l146 147h118l-157 -157z" />
    <glyph glyph-name="l" unicode="l" horiz-adv-x="153" 
d="M122 8h-91v626h91v-626z" />
    <glyph glyph-name="m" unicode="m" horiz-adv-x="673" 
d="M642 8h-91v260q0 85 -62 85q-28 0 -61 -18q-32 -18 -49 -44q1 -15 1 -27v-256h-91v256q0 89 -63 89q-27 0 -57 -18q-30 -17 -47 -42v-285h-91v426h91v-36q54 41 104 41q84 0 126 -66q67 66 137 66q78 0 118 -52q35 -46 35 -123v-256z" />
    <glyph glyph-name="n" unicode="n" horiz-adv-x="449" 
d="M418 8h-91v240q0 106 -85 106q-74 0 -120 -71v-275h-91v426h91v-40q55 45 125 45q171 0 171 -191v-240z" />
    <glyph glyph-name="o" unicode="o" horiz-adv-x="495" 
d="M464 214q0 -95 -61 -155q-60 -60 -155 -60t-156 60t-61 155q0 97 60 160q61 65 157 65t158 -65q58 -62 58 -160zM371 214q0 60 -33 100t-90 40q-58 0 -90 -40q-33 -40 -33 -100q0 -56 34 -92q34 -37 89 -37t89 37q34 36 34 92z" />
    <glyph glyph-name="p" unicode="p" horiz-adv-x="474" 
d="M443 220q0 -97 -49 -156q-54 -65 -152 -65q-69 0 -120 44v-186h-91v577h91v-44q53 49 120 49q91 0 146 -63q55 -62 55 -156zM350 220q0 57 -31 96t-83 39t-84 -43q-31 -39 -31 -92q0 -56 27 -94q32 -43 88 -43t87 40q27 37 27 97z" />
    <glyph glyph-name="q" unicode="q" horiz-adv-x="474" 
d="M443 -143h-91v186q-51 -44 -120 -44q-98 0 -152 65q-49 59 -49 156q0 94 55 156q55 63 146 63q67 0 120 -49v44h91v-577zM353 220q0 53 -30 92q-33 43 -84 43q-53 0 -83 -39q-32 -39 -32 -96q0 -60 28 -97q30 -40 87 -40q55 0 87 43q27 38 27 94z" />
    <glyph glyph-name="r" unicode="r" horiz-adv-x="297" 
d="M266 345q-144 -3 -144 -120v-217h-91v426h91v-49q42 45 144 49v-89z" />
    <glyph glyph-name="s" unicode="s" horiz-adv-x="431" 
d="M400 129q0 -63 -57 -99q-48 -31 -114 -31q-126 0 -198 115l88 38q42 -67 110 -67q27 0 50 10q29 12 29 34q0 19 -38 34q-70 23 -141 46q-87 37 -87 103q0 65 50 99q43 28 111 28q122 0 189 -104l-84 -37q-39 56 -105 56q-70 0 -70 -42q0 -15 37 -26q30 -9 92 -28
q138 -38 138 -129z" />
    <glyph glyph-name="t" unicode="t" horiz-adv-x="323" 
d="M292 348h-101v-226q0 -28 20 -28h78v-86h-80q-109 0 -109 120v220h-69v86h69v102h91v-102h101v-86z" />
    <glyph glyph-name="u" unicode="u" horiz-adv-x="449" 
d="M418 8h-91v50q-62 -59 -127 -59q-169 0 -169 186v249h91v-256q0 -50 16 -71q17 -22 62 -22q38 0 72 26q35 26 55 62v261h91v-426z" />
    <glyph glyph-name="v" unicode="v" horiz-adv-x="500" 
d="M469 434l-176 -426h-86l-176 426h95l124 -309l125 309h94z" />
    <glyph glyph-name="w" unicode="w" horiz-adv-x="773" 
d="M742 434l-159 -426h-89l-108 297l-106 -297h-90l-159 426h97l106 -314l108 314h89l108 -314l106 314h97z" />
    <glyph glyph-name="x" unicode="x" horiz-adv-x="536" 
d="M505 8h-107l-131 160l-129 -160h-107l183 227l-160 199h107l106 -133l108 133h107l-160 -199z" />
    <glyph glyph-name="y" unicode="y" horiz-adv-x="457" 
d="M426 434l-182 -473q-23 -59 -64 -81q-36 -21 -105 -22v90q54 1 68 16q9 8 37 83l-149 387h95l102 -264l103 264h95z" />
    <glyph glyph-name="z" unicode="z" horiz-adv-x="387" 
d="M356 8h-325v71l209 269h-203v86h319v-74l-205 -267h205v-85z" />
    <glyph glyph-name="braceleft" unicode="{" horiz-adv-x="293" 
d="M254 -91h-71q-78 0 -78 89v238q0 46 -37 46h-29v78h29q37 0 37 46v238q0 90 78 90h71v-76h-55q-16 0 -16 -16v-217q0 -70 -43 -104q43 -34 43 -105v-216q0 -15 16 -15h55v-76z" />
    <glyph glyph-name="bar" unicode="|" horiz-adv-x="181" 
d="M130 363h-79v276h79v-276zM130 -1h-79v277h79v-277z" />
    <glyph glyph-name="braceright" unicode="}" horiz-adv-x="293" 
d="M254 282h-29q-38 0 -38 -46v-238q0 -89 -77 -89h-71v76h55q16 0 16 15v216q0 71 43 105q-43 34 -43 104v217q0 16 -16 16h-55v76h71q77 0 77 -90v-238q0 -46 38 -46h29v-78z" />
    <glyph glyph-name="asciitilde" unicode="~" horiz-adv-x="341" 
d="M317 613q-23 -44 -34 -58q-23 -24 -57 -24q-26 0 -63 22q-37 23 -51 23q-18 0 -38 -47l-50 28q17 40 31 57q23 25 58 25q25 0 62 -22q37 -23 52 -23q18 0 36 44z" />
    <glyph glyph-name="currency" unicode="&#xa4;" 
d="M913 368q0 -125 -92 -258l80 -79l-52 -52l-81 80q-133 -92 -256 -92t-256 92l-81 -80l-52 52l80 79q-92 133 -92 258q0 123 94 258l-81 79l51 52l79 -80q133 92 258 92q123 0 256 -92l81 80l52 -52l-80 -79q92 -133 92 -258zM835 368q0 134 -95 228q-94 95 -228 95
t-228 -95q-95 -94 -95 -228t95 -228q94 -95 228 -95t228 95q95 94 95 228z" />
    <glyph glyph-name="section" unicode="&#xa7;" 
d="M725 634l-75 -42q-47 127 -138 127q-105 0 -105 -81q0 -62 101 -98q113 -40 138 -55q74 -45 74 -119q0 -79 -94 -130q88 -61 88 -150q0 -74 -65 -117q-57 -38 -135 -38q-155 0 -215 153l77 36q18 -44 56 -74q37 -30 82 -30q37 0 70 16q41 21 41 54q0 45 -61 79
q-21 12 -99 39q-77 28 -112 54q-51 41 -51 108q0 85 93 132q-77 55 -77 140q0 83 58 127q51 40 136 40q83 0 135 -47q44 -40 78 -124zM631 366q0 35 -50 61q-43 23 -81 23q-43 0 -74 -20q-36 -23 -36 -64q0 -35 54 -60q46 -23 85 -23q40 0 69 22q33 23 33 61z" />
    <glyph glyph-name="dieresis" unicode="&#xa8;" 
d="M691 685h-123v123h123v-123zM457 685h-123v123h123v-123z" />
    <glyph glyph-name="degree" unicode="&#xb0;" 
d="M378 738q0 -51 -36 -86q-36 -36 -86 -36t-86 36q-36 35 -36 86q0 50 36 86t86 36t86 -36t36 -86zM322 738q0 26 -20 46q-19 19 -46 19t-46 -19q-20 -20 -20 -46q0 -27 20 -46q19 -20 46 -20t46 20q20 19 20 46z" />
    <glyph glyph-name="plusminus" unicode="&#xb1;" 
d="M866 437h-310v-212h-88v212h-310v82h310v210h88v-210h310v-82zM866 31h-708v82h708v-82z" />
    <glyph glyph-name="periodcentered" unicode="&#xb7;" 
d="M597 283h-170v170h170v-170z" />
    <glyph glyph-name="periodcentered" unicode="&#x2022;" 
d="M597 283h-170v170h170v-170z" />
    <glyph glyph-name="multiply" unicode="&#xd7;" 
d="M846 107l-61 -61l-273 274l-273 -274l-61 61l274 273l-274 274l61 60l273 -273l273 273l61 -60l-274 -274z" />
    <glyph glyph-name="agrave" unicode="&#xe0;" 
d="M685 621l-27 -56l-299 76l47 93zM764 8h-93q-15 36 -17 70q-64 -79 -168 -79q-103 0 -168 85q-58 78 -58 185q0 104 73 179t180 75q80 0 140 -45v18h95v-410q0 -34 16 -78zM652 259q0 75 -34 122q-37 53 -108 53q-66 0 -109 -50t-43 -115q0 -67 34 -120q38 -62 102 -62
q76 0 117 48q41 47 41 124z" />
    <glyph glyph-name="aacute" unicode="&#xe1;" 
d="M349 657l299 77l27 -57l-280 -112zM764 8h-93q-15 36 -17 70q-64 -79 -168 -79q-103 0 -168 85q-58 78 -58 185q0 104 73 179t180 75q80 0 140 -45v18h95v-410q0 -34 16 -78zM652 259q0 75 -34 122q-37 53 -108 53q-66 0 -109 -50t-43 -115q0 -67 34 -120q38 -62 102 -62
q76 0 117 48q41 47 41 124z" />
    <glyph glyph-name="egrave" unicode="&#xe8;" 
d="M685 621l-27 -56l-299 76l47 93zM734 242h-348q14 -154 127 -154q83 0 136 96l84 -43q-85 -142 -220 -142q-110 0 -169 81q-54 73 -54 186q0 109 57 180q63 77 169 77q99 0 159 -69q59 -69 59 -169v-43zM634 331q-30 104 -118 104q-91 0 -124 -104h242z" />
    <glyph glyph-name="eacute" unicode="&#xe9;" 
d="M734 242h-348q14 -154 127 -154q83 0 136 96l84 -43q-85 -142 -220 -142q-110 0 -169 81q-54 73 -54 186q0 109 57 180q63 77 169 77q99 0 159 -69q59 -69 59 -169v-43zM634 331q-30 104 -118 104q-91 0 -124 -104h242zM349 657l299 77l27 -57l-280 -112z" />
    <glyph glyph-name="ecircumflex" unicode="&#xea;" 
d="M705 598h-91l-100 46l-104 -46h-91l130 102h126zM734 242h-348q14 -154 127 -154q83 0 136 96l84 -43q-85 -142 -220 -142q-110 0 -169 81q-54 73 -54 186q0 109 57 180q63 77 169 77q99 0 159 -69q59 -69 59 -169v-43zM634 331q-30 104 -118 104q-91 0 -124 -104h242z
" />
    <glyph glyph-name="igrave" unicode="&#xec;" 
d="M680 621l-27 -56l-299 76l46 93zM559 8h-94v515h94v-515z" />
    <glyph glyph-name="iacute" unicode="&#xed;" 
d="M559 8h-94v515h94v-515zM349 657l299 77l27 -57l-280 -112z" />
    <glyph glyph-name="ograve" unicode="&#xf2;" 
d="M685 621l-27 -56l-299 76l47 93zM770 255q0 -113 -72 -184q-72 -72 -186 -72t-186 72q-72 71 -72 184q0 116 72 192q71 76 186 76q116 0 186 -76q72 -76 72 -192zM672 255q0 76 -41 126q-44 54 -119 54t-117 -53q-43 -51 -43 -127q0 -72 44 -120t116 -48q73 0 117 48
q43 47 43 120z" />
    <glyph glyph-name="oacute" unicode="&#xf3;" 
d="M770 255q0 -113 -72 -184q-72 -72 -186 -72t-186 72q-72 71 -72 184q0 116 72 192q71 76 186 76q116 0 186 -76q72 -76 72 -192zM672 255q0 76 -41 126q-44 54 -119 54t-117 -53q-43 -51 -43 -127q0 -72 44 -120t116 -48q73 0 117 48q43 47 43 120zM349 657l299 77
l27 -57l-280 -112z" />
    <glyph glyph-name="divide" unicode="&#xf7;" 
d="M578 568h-132v131h132v-131zM866 338h-708v82h708v-82zM578 62h-132v131h132v-131z" />
    <glyph glyph-name="ugrave" unicode="&#xf9;" 
d="M685 621l-27 -56l-299 76l47 93zM742 8h-95v75q-80 -84 -166 -84q-199 0 -199 219v296h95v-305q0 -63 21 -91q24 -31 83 -31q50 0 99 36q43 32 67 80v311h95v-506z" />
    <glyph glyph-name="uacute" unicode="&#xfa;" 
d="M742 8h-95v75q-80 -84 -166 -84q-199 0 -199 219v296h95v-305q0 -63 21 -91q24 -31 83 -31q50 0 99 36q43 32 67 80v311h95v-506zM349 657l299 77l27 -57l-280 -112z" />
    <glyph glyph-name="udieresis" unicode="&#xfc;" 
d="M691 565h-123v122h123v-122zM457 565h-123v122h123v-122zM742 8h-95v75q-80 -84 -166 -84q-199 0 -199 219v296h95v-305q0 -63 21 -91q24 -31 83 -31q50 0 99 36q43 32 67 80v311h95v-506z" />
    <glyph glyph-name="amacron" unicode="&#x101;" 
d="M694 611h-344v76h344v-76zM764 8h-93q-15 36 -17 70q-64 -79 -168 -79q-103 0 -168 85q-58 78 -58 185q0 104 73 179t180 75q80 0 140 -45v18h95v-410q0 -34 16 -78zM652 259q0 75 -34 122q-37 53 -108 53q-66 0 -109 -50t-43 -115q0 -67 34 -120q38 -62 102 -62
q76 0 117 48q41 47 41 124z" />
    <glyph glyph-name="emacron" unicode="&#x113;" 
d="M684 611h-344v76h344v-76zM734 242h-348q14 -154 127 -154q83 0 136 96l84 -43q-85 -142 -220 -142q-110 0 -169 81q-54 73 -54 186q0 109 57 180q63 77 169 77q99 0 159 -69q59 -69 59 -169v-43zM634 331q-30 104 -118 104q-91 0 -124 -104h242z" />
    <glyph glyph-name="ecaron" unicode="&#x11b;" 
d="M705 700l-130 -102h-126l-130 102h91l104 -46l100 46h91zM734 242h-348q14 -154 127 -154q83 0 136 96l84 -43q-85 -142 -220 -142q-110 0 -169 81q-54 73 -54 186q0 109 57 180q63 77 169 77q99 0 159 -69q59 -69 59 -169v-43zM634 331q-30 104 -118 104
q-91 0 -124 -104h242z" />
    <glyph glyph-name="imacron" unicode="&#x12b;" 
d="M684 611h-344v76h344v-76zM559 8h-94v515h94v-515z" />
    <glyph glyph-name="nacute" unicode="&#x144;" 
d="M742 8h-95v289q0 138 -113 138q-97 0 -157 -93v-334h-95v506h95v-57q72 66 163 66q202 0 202 -226v-289zM349 657l299 77l27 -57l-280 -112z" />
    <glyph glyph-name="ncaron" unicode="&#x148;" 
d="M705 700l-130 -102h-126l-130 102h91l104 -46l100 46h91zM742 8h-95v289q0 138 -113 138q-97 0 -157 -93v-334h-95v506h95v-57q72 66 163 66q202 0 202 -226v-289z" />
    <glyph glyph-name="omacron" unicode="&#x14d;" 
d="M684 611h-344v76h344v-76zM770 255q0 -113 -72 -184q-72 -72 -186 -72t-186 72q-72 71 -72 184q0 116 72 192q71 76 186 76q116 0 186 -76q72 -76 72 -192zM672 255q0 76 -41 126q-44 54 -119 54t-117 -53q-43 -51 -43 -127q0 -72 44 -120t116 -48q73 0 117 48
q43 47 43 120z" />
    <glyph glyph-name="umacron" unicode="&#x16b;" 
d="M684 611h-344v76h344v-76zM742 8h-95v75q-80 -84 -166 -84q-199 0 -199 219v296h95v-305q0 -63 21 -91q24 -31 83 -31q50 0 99 36q43 32 67 80v311h95v-506z" />
    <glyph glyph-name="uni01CE" unicode="&#x1ce;" 
d="M715 700l-129 -102h-127l-129 102h90l104 -46l101 46h90zM764 8h-93q-15 36 -17 70q-64 -79 -168 -79q-103 0 -168 85q-58 78 -58 185q0 104 73 179t180 75q80 0 140 -45v18h95v-410q0 -34 16 -78zM652 259q0 75 -34 122q-37 53 -108 53q-66 0 -109 -50t-43 -115
q0 -67 34 -120q38 -62 102 -62q76 0 117 48q41 47 41 124z" />
    <glyph glyph-name="uni01D0" unicode="&#x1d0;" 
d="M705 700l-130 -102h-126l-130 102h91l104 -46l100 46h91zM559 8h-94v515h94v-515z" />
    <glyph glyph-name="uni01D2" unicode="&#x1d2;" 
d="M705 700l-130 -102h-126l-130 102h91l104 -46l100 46h91zM770 255q0 -113 -72 -184q-72 -72 -186 -72t-186 72q-72 71 -72 184q0 116 72 192q71 76 186 76q116 0 186 -76q72 -76 72 -192zM672 255q0 76 -41 126q-44 54 -119 54t-117 -53q-43 -51 -43 -127q0 -72 44 -120
t116 -48q73 0 117 48q43 47 43 120z" />
    <glyph glyph-name="uni01D4" unicode="&#x1d4;" 
d="M705 700l-130 -102h-126l-130 102h91l104 -46l100 46h91zM742 8h-95v75q-80 -84 -166 -84q-199 0 -199 219v296h95v-305q0 -63 21 -91q24 -31 83 -31q50 0 99 36q43 32 67 80v311h95v-506z" />
    <glyph glyph-name="uni01D6" unicode="&#x1d6;" 
d="M684 741h-344v77h344v-77zM691 565h-123v122h123v-122zM457 565h-123v122h123v-122zM742 8h-95v75q-80 -84 -166 -84q-199 0 -199 219v296h95v-305q0 -63 21 -91q24 -31 83 -31q50 0 99 36q43 32 67 80v311h95v-506z" />
    <glyph glyph-name="uni01D8" unicode="&#x1d8;" 
d="M691 565h-123v122h123v-122zM457 565h-123v122h123v-122zM742 8h-95v75q-80 -84 -166 -84q-199 0 -199 219v296h95v-305q0 -63 21 -91q24 -31 83 -31q50 0 99 36q43 32 67 80v311h95v-506zM349 792l299 77l27 -57l-280 -112z" />
    <glyph glyph-name="uni01DA" unicode="&#x1da;" 
d="M705 828l-130 -102h-126l-130 102h91l104 -46l100 46h91zM691 565h-123v122h123v-122zM457 565h-123v122h123v-122zM742 8h-95v75q-80 -84 -166 -84q-199 0 -199 219v296h95v-305q0 -63 21 -91q24 -31 83 -31q50 0 99 36q43 32 67 80v311h95v-506z" />
    <glyph glyph-name="uni01DC" unicode="&#x1dc;" 
d="M651 756l-26 -56l-299 77l46 92zM698 565h-123v122h123v-122zM464 565h-123v122h123v-122zM742 8h-95v75q-80 -84 -166 -84q-199 0 -199 219v296h95v-305q0 -63 21 -91q24 -31 83 -31q50 0 99 36q43 32 67 80v311h95v-506z" />
    <glyph glyph-name="uni01F9" unicode="&#x1f9;" 
d="M685 621l-27 -56l-299 76l47 93zM742 8h-95v289q0 138 -113 138q-97 0 -157 -93v-334h-95v506h95v-57q72 66 163 66q202 0 202 -226v-289z" />
    <glyph glyph-name="uni01F9" unicode="&#xe7c8;" 
d="M685 621l-27 -56l-299 76l47 93zM742 8h-95v289q0 138 -113 138q-97 0 -157 -93v-334h-95v506h95v-57q72 66 163 66q202 0 202 -226v-289z" />
    <glyph glyph-name="uni0251" unicode="&#x251;" 
d="M764 8h-93q-15 36 -17 70q-64 -79 -168 -79q-103 0 -168 85q-58 78 -58 185q0 104 73 179t180 75q80 0 140 -45v18h95v-410q0 -34 16 -78zM652 259q0 75 -34 122q-37 53 -108 53q-66 0 -109 -50t-43 -115q0 -67 34 -120q38 -62 102 -62q76 0 117 48q41 47 41 124z" />
    <glyph glyph-name="uni0261" unicode="&#x261;" 
d="M743 94q0 -104 -60 -170q-63 -68 -166 -68q-148 0 -214 122l83 40q43 -74 131 -74q64 0 98 44q33 40 33 106v32q-61 -67 -139 -67q-97 0 -163 66q-65 67 -65 164q0 98 65 166t163 68q77 0 139 -55v46h95v-420zM647 293q0 63 -38 102q-38 40 -100 40q-56 0 -93 -44
q-37 -45 -37 -102q0 -55 38 -98t92 -43q63 0 101 40q37 41 37 105z" />
    <glyph glyph-name="caron" unicode="&#x2c7;" 
d="M705 798l-130 -101h-126l-130 101h91l104 -46l100 46h91z" />
    <glyph glyph-name="uni02C9" unicode="&#x2c9;" 
d="M684 708h-344v78h344v-78z" />
    <glyph glyph-name="Alpha" unicode="&#x391;" 
d="M870 8h-101l-86 208h-342l-86 -208h-101l309 745h98zM645 305l-133 323l-133 -323h266z" />
    <glyph glyph-name="Beta" unicode="&#x392;" 
d="M780 215q0 -101 -91 -158q-77 -49 -185 -49h-260v745h266q250 0 250 -194q0 -102 -88 -159q108 -56 108 -185zM662 559q0 106 -155 106h-169v-225h148q67 0 115 26q61 32 61 93zM682 215q0 72 -57 107q-48 30 -124 30h-163v-256h163q65 0 116 26q65 34 65 93z" />
    <glyph glyph-name="Gamma" unicode="&#x393;" 
d="M760 665h-401v-657h-95v745h496v-88z" />
    <glyph glyph-name="uni0394" unicode="&#x394;" 
d="M862 8h-700l350 753zM719 96l-207 441l-207 -441h414z" />
    <glyph glyph-name="Epsilon" unicode="&#x395;" 
d="M748 8h-472v745h472v-88h-376v-234h333v-88h-333v-247h376v-88z" />
    <glyph glyph-name="Zeta" unicode="&#x396;" 
d="M773 8h-522v88l411 569h-399v88h510v-87l-411 -570h411v-88z" />
    <glyph glyph-name="Eta" unicode="&#x397;" 
d="M800 8h-95v329h-386v-329h-95v745h95v-328h386v328h95v-745z" />
    <glyph glyph-name="Theta" unicode="&#x398;" 
d="M866 381q0 -157 -97 -267q-100 -115 -257 -115t-257 115q-97 110 -97 267q0 159 96 268q101 112 258 112t258 -112q96 -109 96 -268zM768 381q0 121 -67 203q-71 89 -189 89t-189 -89q-67 -82 -67 -203t67 -200q70 -85 189 -85t189 85q67 79 67 200zM683 259h-95v72h-153
v-72h-95v236h95v-76h153v76h95v-236z" />
    <glyph glyph-name="Iota" unicode="&#x399;" 
d="M560 8h-96v745h96v-745z" />
    <glyph glyph-name="Kappa" unicode="&#x39a;" 
d="M815 8h-126l-300 346l-85 -85v-261h-95v745h95v-357l360 357h123l-331 -332z" />
    <glyph glyph-name="Lambda" unicode="&#x39b;" 
d="M870 8h-100l-258 622l-258 -622h-100l309 745h98z" />
    <glyph glyph-name="Mu" unicode="&#x39c;" 
d="M892 8h-95v572l-239 -572h-92l-239 572v-572h-95v745h120l260 -628l260 628h120v-745z" />
    <glyph glyph-name="Nu" unicode="&#x39d;" 
d="M811 8h-105l-398 594v-594h-95v745h105l398 -595v595h95v-745z" />
    <glyph glyph-name="Xi" unicode="&#x39e;" 
d="M770 666h-516v87h516v-87zM729 363h-434v88h434v-88zM770 8h-516v87h516v-87z" />
    <glyph glyph-name="Omicron" unicode="&#x39f;" 
d="M834 381q0 -159 -79 -265q-88 -117 -243 -117t-243 117q-79 106 -79 265q0 160 79 265q88 115 243 115t243 -115q79 -105 79 -265zM735 381q0 119 -51 197q-59 92 -172 92t-172 -92q-51 -78 -51 -197q0 -116 52 -197q60 -95 171 -95q112 0 172 95q51 80 51 197z" />
    <glyph glyph-name="Pi" unicode="&#x3a0;" 
d="M783 8h-94v662h-354v-662h-94v745h542v-745z" />
    <glyph glyph-name="Rho" unicode="&#x3a1;" 
d="M776 544q0 -103 -80 -161q-70 -49 -179 -49h-173v-326h-96v745h269q112 0 180 -47q79 -55 79 -162zM677 544q0 121 -163 121h-170v-243h170q163 0 163 122z" />
    <glyph glyph-name="Sigma" unicode="&#x3a3;" 
d="M788 8h-552v89l288 289l-288 289v78h534v-87h-395l281 -279l-294 -292h426v-87z" />
    <glyph glyph-name="Tau" unicode="&#x3a4;" 
d="M807 665h-247v-657h-96v657h-247v88h590v-88z" />
    <glyph glyph-name="Upsilon" unicode="&#x3a5;" 
d="M856 753l-296 -399v-346h-95v345l-297 400h116l228 -308l230 308h114z" />
    <glyph glyph-name="Phi" unicode="&#x3a6;" 
d="M851 377q0 -267 -292 -292v-77h-94v77q-292 25 -292 292t292 291v85h94v-85q292 -24 292 -291zM759 377q0 187 -200 207v-415q200 20 200 208zM465 169v415q-200 -20 -200 -207q0 -188 200 -208z" />
    <glyph glyph-name="Chi" unicode="&#x3a7;" 
d="M863 8h-115l-235 318l-235 -318h-117l294 397l-257 348h113l202 -271l200 271h114l-257 -348z" />
    <glyph glyph-name="Psi" unicode="&#x3a8;" 
d="M855 536q0 -162 -68 -245q-71 -88 -228 -99v-184h-94v184q-157 11 -228 99q-68 83 -68 245v217h94v-217q0 -123 39 -180q46 -67 163 -77v474h94v-474q117 10 163 77q39 57 39 180v217h94v-217z" />
    <glyph glyph-name="uni03A9" unicode="&#x3a9;" 
d="M858 415q0 -216 -205 -320h156v-87h-250v124q103 42 151 107q51 70 51 176q0 117 -67 189q-66 71 -182 71q-115 0 -182 -71q-67 -73 -67 -189q0 -106 51 -176q48 -65 151 -107v-124h-250v87h156q-205 104 -205 320q0 156 95 251t251 95t251 -95t95 -251z" />
    <glyph glyph-name="alpha" unicode="&#x3b1;" 
d="M804 -1h-86q-72 0 -92 76q-72 -76 -160 -76q-111 0 -179 78q-67 75 -67 187q0 111 69 185q68 74 179 74q88 0 156 -52v43h91v-386q0 -32 20 -32h69v-97zM624 264q0 73 -40 120q-43 51 -116 51t-113 -51q-37 -46 -37 -120q0 -73 36 -124q41 -57 112 -57q68 0 114 58
q44 54 44 123z" />
    <glyph glyph-name="beta" unicode="&#x3b2;" 
d="M769 224q0 -101 -72 -164q-67 -61 -170 -61q-111 0 -182 76v-219h-90v647q0 115 58 184q63 74 175 74q86 0 147 -55q60 -54 60 -139q0 -81 -75 -141q66 -20 107 -76q42 -57 42 -126zM671 224q0 89 -66 116q-40 18 -143 18v88h40q45 0 71 39q24 35 24 82q0 48 -30 77
t-79 29q-143 0 -143 -170v-289q53 -127 182 -127q62 0 103 37q41 38 41 100z" />
    <glyph glyph-name="gamma" unicode="&#x3b3;" 
d="M748 514l-171 -404v-254h-96v257l-137 289q-15 33 -68 33v88q61 -1 88 -12q36 -15 59 -61l104 -217l120 281h101z" />
    <glyph glyph-name="delta" unicode="&#x3b4;" 
d="M773 254q0 -105 -78 -180t-183 -75q-100 0 -180 76q-81 75 -81 175t63 171q62 69 160 89l-178 159v84h374v-88h-235q67 -56 200 -168q74 -62 101 -104q37 -58 37 -139zM675 254q0 75 -42 122q-41 46 -115 46q-78 0 -123 -47q-46 -47 -46 -125q0 -64 49 -113
q49 -50 114 -50q71 0 117 48t46 119z" />
    <glyph glyph-name="epsilon" unicode="&#x3b5;" 
d="M699 41q-81 -42 -180 -42q-78 0 -132 35q-62 41 -62 115q0 75 82 115q-75 53 -75 116q0 73 63 111q52 32 130 32q63 0 139 -28l-41 -79q-60 19 -98 19q-95 0 -95 -58q0 -72 117 -72h33q20 1 27 1v-89q-93 0 -111 -3q-73 -12 -73 -65q0 -32 34 -48q26 -14 62 -14
q76 0 135 29z" />
    <glyph glyph-name="zeta" unicode="&#x3b6;" 
d="M710 20q0 -53 -44 -164h-99q44 89 44 164q0 22 -43 31q-32 4 -99 15q-155 33 -155 205q0 194 235 394h-202v88h337v-82q-271 -185 -271 -400q0 -90 76 -116q72 -13 144 -28q77 -23 77 -107z" />
    <glyph glyph-name="eta" unicode="&#x3b7;" 
d="M766 -144h-95v488q0 91 -82 91q-63 0 -105 -73v-354h-95v386q0 33 -10 33q-15 0 -62 -54l-59 47q39 47 61 66q38 29 83 29q44 0 67 -50q58 58 134 58q78 0 122 -50q41 -46 41 -124v-493z" />
    <glyph glyph-name="theta" unicode="&#x3b8;" 
d="M760 381q0 -154 -47 -252q-63 -130 -201 -130q-137 0 -200 131q-48 99 -48 251q0 150 49 250q65 130 199 130t199 -130q49 -100 49 -250zM662 435q-19 238 -150 238q-133 0 -152 -238h302zM662 346h-302q12 -259 152 -259q138 0 150 259z" />
    <glyph glyph-name="iota" unicode="&#x3b9;" 
d="M600 8h-79q-97 0 -97 110v396h95v-396q0 -22 20 -22h61v-88z" />
    <glyph glyph-name="kappa" unicode="&#x3ba;" 
d="M730 8h-116l-177 231l-50 -46v-185h-93v506h93v-194l208 194h131l-222 -212z" />
    <glyph glyph-name="lambda" unicode="&#x3bb;" 
d="M798 8h-61q-59 0 -93 23q-34 24 -55 79l-107 272l-155 -374h-101l208 498l-47 118q-17 43 -63 43q-8 0 -25 -1t-28 -1v88h72q93 0 129 -92l203 -514q12 -32 30 -43q14 -9 40 -9h24q17 1 29 1v-88z" />
    <glyph glyph-name="uni03BC" unicode="&#x3bc;" 
d="M764 3q-109 3 -149 63q-59 -67 -142 -67q-65 0 -118 46v-189h-95v658h95v-311q0 -54 32 -85t86 -31q110 0 110 116v311h95v-336q0 -51 17 -68q18 -17 69 -18v-89z" />
    <glyph glyph-name="nu" unicode="&#x3bd;" 
d="M749 514l-191 -506h-92l-191 506h101l137 -364l137 364h99z" />
    <glyph glyph-name="xi" unicode="&#x3be;" 
d="M711 10q0 -49 -43 -154h-104q48 95 48 154q0 28 -77 54q-109 36 -144 58q-78 50 -78 140q0 58 43 111q38 46 97 74q-91 54 -91 127q0 50 41 91h-75v88h358v-88h-126q-44 0 -72 -24q-27 -23 -27 -67q0 -35 35 -63q29 -23 75 -27h82v-88q-11 0 -33 1h-35q-88 0 -130 -41
q-43 -40 -43 -94q0 -60 77 -92q72 -25 144 -51q78 -37 78 -109z" />
    <glyph glyph-name="omicron" unicode="&#x3bf;" 
d="M763 255q0 -110 -71 -183q-69 -73 -180 -73t-180 73q-71 73 -71 183q0 114 69 191t182 77t183 -78q68 -76 68 -190zM665 255q0 78 -37 126q-40 54 -116 54q-75 0 -116 -55q-37 -48 -37 -125q0 -73 40 -120q40 -48 113 -48q74 0 115 49q38 45 38 119z" />
    <glyph glyph-name="pi" unicode="&#x3c0;" 
d="M809 8h-75q-100 0 -100 117v301h-230v-418h-95v418h-94v88h594v-88h-80v-302q0 -16 4 -22q3 -6 18 -6h58v-88z" />
    <glyph glyph-name="rho" unicode="&#x3c1;" 
d="M768 255q0 -113 -72 -184q-71 -72 -185 -72q-99 0 -164 62v-205h-91v389q0 120 67 197q70 81 188 81q116 0 186 -75q71 -76 71 -193zM669 255q0 80 -38 128q-41 52 -120 52t-118 -51q-40 -49 -40 -129q0 -72 43 -120t115 -48q75 0 116 48q42 46 42 120z" />
    <glyph glyph-name="sigma" unicode="&#x3c3;" 
d="M800 426h-125q51 -73 51 -171q0 -110 -69 -183t-180 -73q-110 0 -182 73q-71 73 -71 183q0 114 71 191q70 77 182 77q11 0 33 -4q22 -5 33 -5h257v-88zM628 255q0 79 -35 126q-40 54 -116 54t-117 -54q-37 -48 -37 -126q0 -73 41 -120q40 -48 113 -48q74 0 114 49
q37 45 37 119z" />
    <glyph glyph-name="tau" unicode="&#x3c4;" 
d="M744 426h-169v-301q0 -29 21 -29h63v-88h-78q-101 0 -101 117v301h-200v88h464v-88z" />
    <glyph glyph-name="upsilon" unicode="&#x3c5;" 
d="M749 226q0 -227 -237 -227t-237 227v288h96v-288q0 -78 30 -108q32 -31 111 -31t111 31q30 30 30 108v288h96v-288z" />
    <glyph glyph-name="phi" unicode="&#x3c6;" 
d="M802 258q0 -117 -63 -187q-61 -69 -179 -77v-138h-95v138q-118 9 -180 78q-63 69 -63 186q0 118 63 187q63 68 180 82v152h95v-152q118 -14 179 -82q63 -69 63 -187zM703 258q0 159 -143 181v-358q143 18 143 177zM465 81v358q-144 -22 -144 -181t144 -177z" />
    <glyph glyph-name="chi" unicode="&#x3c7;" 
d="M766 -144h-16q-54 0 -85 22q-28 19 -56 68l-95 170l-148 -253h-108l204 347q-49 92 -100 181q-20 35 -46 35h-46v88h49q53 0 85 -28q21 -19 53 -75l60 -108l125 211h106l-179 -305l124 -222q16 -28 29 -35q13 -8 44 -8v-88z" />
    <glyph glyph-name="psi" unicode="&#x3c8;" 
d="M827 277q0 -256 -267 -278v-143h-95v143q-268 22 -268 278v237h95v-237q0 -94 40 -137q39 -43 133 -53v592h95v-592q93 9 132 53q40 44 40 137v237h95v-237z" />
    <glyph glyph-name="omega" unicode="&#x3c9;" 
d="M881 240q0 -99 -57 -167q-60 -74 -156 -74q-102 0 -156 81q-56 -81 -156 -81q-96 0 -156 74q-57 68 -57 167q0 65 33 145q31 74 76 129l74 -48q-34 -43 -60 -108q-24 -66 -24 -118q0 -60 26 -102q31 -51 88 -51q53 0 80 35q28 35 28 88v143h95v-143q0 -52 28 -86
q29 -37 81 -37q58 0 89 50q25 42 25 103q0 52 -24 118q-26 65 -60 108l74 48q45 -55 76 -129q33 -80 33 -145z" />
    <glyph glyph-name="uni0401" unicode="&#x401;" 
d="M674 776h-105v104h105v-104zM458 776h-105v104h105v-104zM748 8h-472v745h472v-88h-376v-234h333v-88h-333v-247h376v-88z" />
    <glyph glyph-name="uni0410" unicode="&#x410;" 
d="M870 8h-101l-86 208h-342l-86 -208h-101l309 745h98zM645 305l-133 323l-133 -323h266z" />
    <glyph glyph-name="uni0411" unicode="&#x411;" 
d="M791 224q0 -114 -81 -169q-70 -47 -189 -47h-288v745h496v-88h-400v-224h192q270 0 270 -217zM692 224q0 129 -174 129h-189v-257h189q174 0 174 128z" />
    <glyph glyph-name="uni0412" unicode="&#x412;" 
d="M780 215q0 -101 -91 -158q-77 -49 -185 -49h-260v745h266q250 0 250 -194q0 -102 -88 -159q108 -56 108 -185zM662 559q0 106 -155 106h-169v-225h148q67 0 115 26q61 32 61 93zM682 215q0 72 -57 107q-48 30 -124 30h-163v-256h163q65 0 116 26q65 34 65 93z" />
    <glyph glyph-name="uni0413" unicode="&#x413;" 
d="M760 665h-401v-657h-95v745h496v-88z" />
    <glyph glyph-name="uni0414" unicode="&#x414;" 
d="M894 -144h-95v152h-574v-152h-95v240h84q73 139 123 320q48 174 61 337h406v-657h90v-240zM709 96v569h-230q-35 -288 -166 -569h396z" />
    <glyph glyph-name="uni0415" unicode="&#x415;" 
d="M748 8h-472v745h472v-88h-376v-234h333v-88h-333v-247h376v-88z" />
    <glyph glyph-name="uni0416" unicode="&#x416;" 
d="M920 8h-98q-45 124 -83 210q-27 64 -69 95t-111 39v-344h-95v344q-75 -9 -116 -42q-40 -34 -86 -143q-13 -30 -61 -159h-97q66 183 81 216q62 131 143 169q-52 32 -80 106q-19 57 -37 115q-21 53 -57 53h-40v86h34q103 0 140 -81q24 -75 48 -149q34 -81 128 -81v311h95
v-311h9q85 0 118 81q25 74 49 149q39 81 141 81h34v-86h-40q-39 0 -60 -53q-18 -58 -37 -115q-28 -74 -77 -106q80 -38 143 -170q16 -36 81 -215z" />
    <glyph glyph-name="uni0417" unicode="&#x417;" 
d="M776 220q0 -106 -87 -166q-77 -55 -186 -55q-133 0 -255 61l37 84q109 -54 218 -54q69 0 118 29q57 35 57 101q0 71 -65 111q-55 34 -131 34q-21 0 -74 -3v92q64 -4 68 -4q65 0 112 24q58 32 58 91q0 54 -50 83q-41 22 -99 22q-91 0 -203 -54l-38 83q128 62 241 62
q99 0 169 -47q78 -54 78 -149q0 -47 -25 -89q-26 -42 -68 -64q125 -54 125 -192z" />
    <glyph glyph-name="uni0418" unicode="&#x418;" 
d="M806 8h-95v582l-401 -582h-92v745h95v-588l402 588h91v-745z" />
    <glyph glyph-name="uni0419" unicode="&#x419;" 
d="M677 879q-18 -134 -165 -134t-165 134h71q1 -38 28 -60q27 -23 66 -23t66 23q27 21 28 60h71zM806 8h-95v582l-401 -582h-92v745h95v-588l402 588h91v-745z" />
    <glyph glyph-name="uni041A" unicode="&#x41a;" 
d="M815 8h-126l-300 346l-85 -85v-261h-95v745h95v-357l360 357h123l-331 -332z" />
    <glyph glyph-name="uni041B" unicode="&#x41b;" 
d="M836 8h-96v659h-351v-489q0 -97 -54 -136q-46 -33 -147 -34v89q60 1 78 12q28 15 28 69v575h542v-745z" />
    <glyph glyph-name="uni041C" unicode="&#x41c;" 
d="M891 8h-94v582l-239 -582h-92l-239 582v-582h-94v745h124l255 -628l255 628h124v-745z" />
    <glyph glyph-name="uni041D" unicode="&#x41d;" 
d="M800 8h-95v329h-386v-329h-95v745h95v-328h386v328h95v-745z" />
    <glyph glyph-name="uni041E" unicode="&#x41e;" 
d="M834 381q0 -159 -79 -265q-88 -117 -243 -117t-243 117q-79 106 -79 265q0 160 79 265q88 115 243 115t243 -115q79 -105 79 -265zM735 381q0 119 -51 197q-59 92 -172 92t-172 -92q-51 -78 -51 -197q0 -116 52 -197q60 -95 171 -95q112 0 172 95q51 80 51 197z" />
    <glyph glyph-name="uni041F" unicode="&#x41f;" 
d="M783 8h-95v659h-352v-659h-95v745h542v-745z" />
    <glyph glyph-name="uni0420" unicode="&#x420;" 
d="M776 544q0 -103 -80 -161q-70 -49 -179 -49h-173v-326h-96v745h269q112 0 180 -47q79 -55 79 -162zM677 544q0 121 -163 121h-170v-243h170q163 0 163 122z" />
    <glyph glyph-name="uni0421" unicode="&#x421;" 
d="M813 71q-117 -72 -248 -72q-161 0 -259 105q-95 101 -95 263q0 169 92 279q97 115 263 115q116 0 244 -68l-38 -78q-106 55 -206 55q-128 0 -195 -90q-62 -81 -62 -213q0 -125 65 -199q67 -78 191 -78q106 0 214 63z" />
    <glyph glyph-name="uni0422" unicode="&#x422;" 
d="M807 665h-247v-657h-96v657h-247v88h590v-88z" />
    <glyph glyph-name="uni0423" unicode="&#x423;" 
d="M810 753l-337 -646q-52 -99 -136 -99h-81v89q12 0 31 -1h24q29 0 44 9q20 11 36 43l84 161l-261 444h107l201 -348l185 348h103z" />
    <glyph glyph-name="uni0424" unicode="&#x424;" 
d="M848 377q0 -268 -289 -292v-77h-95v77q-288 24 -288 292q0 267 288 291v85h95v-85q289 -24 289 -291zM750 377q0 186 -191 205v-408q191 20 191 203zM464 174v408q-190 -18 -190 -204t190 -204z" />
    <glyph glyph-name="uni0425" unicode="&#x425;" 
d="M863 8h-115l-235 318l-235 -318h-117l294 397l-257 348h113l202 -271l200 271h114l-257 -348z" />
    <glyph glyph-name="uni0426" unicode="&#x426;" 
d="M838 -144h-96v152h-556v745h96v-657h396v657h95v-657h65v-240z" />
    <glyph glyph-name="uni0427" unicode="&#x427;" 
d="M804 8h-95v406q-152 -140 -286 -140q-203 0 -203 223v256h95v-256q0 -68 20 -96q24 -36 88 -36q75 0 160 53q74 47 126 114v221h95v-745z" />
    <glyph glyph-name="uni0428" unicode="&#x428;" 
d="M855 8h-686v745h95v-657h201v657h95v-657h200v657h95v-745z" />
    <glyph glyph-name="uni0429" unicode="&#x429;" 
d="M874 -144h-95v152h-629v745h95v-657h201v657h96v-657h202v657h96v-657h34v-240z" />
    <glyph glyph-name="uni042A" unicode="&#x42a;" 
d="M848 233q0 -114 -80 -173q-72 -52 -189 -52h-239v657h-164v88h259v-296q157 0 188 -3q105 -9 158 -52q67 -54 67 -169zM750 233q0 136 -177 136h-138v-273h138q177 0 177 137z" />
    <glyph glyph-name="uni042B" unicode="&#x42b;" 
d="M877 8h-96v745h96v-745zM655 233q0 -115 -81 -173q-70 -52 -189 -52h-238v745h96v-296q155 0 186 -3q106 -9 160 -52q66 -54 66 -169zM557 233q0 78 -51 110q-41 26 -124 26h-139v-273h139q175 0 175 137z" />
    <glyph glyph-name="uni042C" unicode="&#x42c;" 
d="M763 233q0 -114 -79 -172q-70 -53 -187 -53h-236v745h95v-296q153 0 186 -3q103 -10 155 -53q66 -53 66 -168zM665 233q0 136 -171 136h-138v-273h138q171 0 171 137z" />
    <glyph glyph-name="uni042D" unicode="&#x42d;" 
d="M812 382q0 -165 -94 -271q-98 -112 -261 -112q-119 0 -245 67l44 78q103 -54 201 -54q110 0 179 69q64 66 78 177h-294v88h294q-14 108 -71 173q-64 73 -168 73q-86 0 -203 -55l-35 85q141 61 238 61q155 0 249 -113q88 -108 88 -266z" />
    <glyph glyph-name="uni042E" unicode="&#x42e;" 
d="M937 380q0 -155 -70 -260q-80 -121 -228 -121q-135 0 -215 106q-70 90 -81 233h-161v-330h-95v745h95v-327h162q12 143 81 232q80 103 214 103q148 0 228 -121q70 -104 70 -260zM839 380q0 115 -42 193q-53 97 -158 97t-158 -97q-40 -77 -40 -193q0 -115 40 -192
q53 -98 158 -98q106 0 159 98q41 77 41 192z" />
    <glyph glyph-name="uni042F" unicode="&#x42f;" 
d="M793 9h-96v309q-151 0 -174 2l-187 -312h-105l200 333q-129 60 -129 193q0 105 77 165q70 54 178 54h236v-744zM697 406v259h-140q-69 0 -110 -31q-47 -34 -47 -100q0 -65 49 -98q41 -30 108 -30h140z" />
    <glyph glyph-name="uni0430" unicode="&#x430;" 
d="M746 8h-62q-74 0 -83 63q-100 -72 -179 -72q-60 0 -100 35q-44 37 -44 95q0 105 115 157q80 36 207 43v25q0 44 -16 62q-17 19 -60 19q-66 0 -169 -52l-38 83q120 57 207 57q171 0 171 -169v-246q0 -12 13 -12h38v-88zM600 168v77q-80 -5 -137 -24q-87 -32 -87 -92
q0 -42 46 -42q84 0 178 81z" />
    <glyph glyph-name="uni0431" unicode="&#x431;" 
d="M759 268q0 -115 -65 -190q-67 -79 -180 -79q-137 0 -201 120q-48 93 -48 244q0 140 51 253q66 145 190 145q21 0 62 -10q41 -11 56 -11q25 0 82 21v-88q-51 -21 -80 -21q-21 0 -61 11q-39 10 -59 10q-56 0 -98 -84q-31 -61 -42 -133q71 67 162 67q106 0 170 -76
q61 -72 61 -179zM660 268q0 72 -32 116q-38 51 -108 51q-55 0 -107 -45q-53 -46 -53 -100q0 -84 34 -138q41 -65 120 -65q75 0 113 56q33 47 33 125z" />
    <glyph glyph-name="uni0432" unicode="&#x432;" 
d="M719 154q0 -75 -59 -114q-49 -32 -128 -32h-227v506h216q184 0 184 -138q0 -68 -57 -100q71 -34 71 -122zM609 373q0 53 -93 53h-116v-110h114q95 0 95 57zM624 157q0 46 -37 61q-23 10 -77 10h-110v-132h112q112 0 112 61z" />
    <glyph glyph-name="uni0433" unicode="&#x433;" 
d="M700 426h-281v-418h-95v506h376v-88z" />
    <glyph glyph-name="uni0434" unicode="&#x434;" 
d="M781 -144h-95v152h-348v-152h-95v236h52q50 79 86 203q33 115 40 219h310v-422h50v-236zM636 92v334h-133q-25 -162 -107 -334h240z" />
    <glyph glyph-name="uni0435" unicode="&#x435;" 
d="M734 242h-348q14 -154 127 -154q83 0 136 96l84 -43q-85 -142 -220 -142q-110 0 -169 81q-54 73 -54 186q0 109 57 180q63 77 169 77q99 0 160 -71q58 -67 58 -167v-43zM634 331q-30 104 -118 104q-91 0 -124 -104h242z" />
    <glyph glyph-name="uni0436" unicode="&#x436;" 
d="M852 8h-99l-59 126q-20 45 -54 61q-26 12 -81 14v-201h-95v201q-55 -2 -80 -14q-32 -16 -53 -61l-60 -126h-99l73 156q33 71 101 99q-38 21 -58 66q-13 34 -26 69q-14 31 -43 31h-25v85h25q81 0 112 -50l38 -98q26 -56 95 -67v215h95v-215q70 11 97 67q20 49 39 98
q31 50 111 50h24v-85h-24q-29 0 -44 -31l-26 -70q-21 -44 -58 -65q68 -28 101 -99z" />
    <glyph glyph-name="uni0437" unicode="&#x437;" 
d="M711 160q0 -87 -72 -128q-56 -33 -151 -33q-79 0 -175 56l46 76q82 -44 129 -44q124 0 124 73q0 61 -105 61q-18 0 -84 -5v98q61 -5 77 -5q95 0 95 68q0 58 -100 58q-55 0 -123 -34l-40 79q87 43 163 43q83 0 135 -31q63 -38 63 -115q0 -66 -53 -103q71 -30 71 -114z" />
    <glyph glyph-name="uni0438" unicode="&#x438;" 
d="M724 8h-95v360l-236 -360h-93v506h95v-357l236 357h93v-506z" />
    <glyph glyph-name="uni0439" unicode="&#x439;" 
d="M678 680q-19 -134 -166 -134t-166 134h86q2 -71 80 -71t80 71h86zM724 8h-95v360l-236 -360h-93v506h95v-357l236 357h93v-506z" />
    <glyph glyph-name="uni043A" unicode="&#x43a;" 
d="M711 8h-100l-133 240l-69 -86v-154h-96v506h96v-213l170 213h111l-151 -192z" />
    <glyph glyph-name="uni043B" unicode="&#x43b;" 
d="M750 8h-96v418h-205v-308q0 -108 -175 -110v88q42 1 59 12q20 14 20 54v352h397v-506z" />
    <glyph glyph-name="uni043C" unicode="&#x43c;" 
d="M761 8h-95v305l-111 -314h-86l-111 317v-308h-95v506h118l131 -382l131 382h118v-506z" />
    <glyph glyph-name="uni043D" unicode="&#x43d;" 
d="M739 8h-95v229h-264v-229h-95v506h95v-189h264v189h95v-506z" />
    <glyph glyph-name="uni043E" unicode="&#x43e;" 
d="M762 255q0 -110 -70 -183t-180 -73t-180 73t-70 183q0 114 68 189q70 79 182 79t182 -79q68 -75 68 -189zM664 255q0 78 -36 126q-41 54 -116 54t-116 -54q-36 -48 -36 -126q0 -73 39 -118q41 -50 113 -50q73 0 114 49q38 45 38 119z" />
    <glyph glyph-name="uni043F" unicode="&#x43f;" 
d="M737 8h-95v418h-260v-418h-95v506h450v-506z" />
    <glyph glyph-name="uni0440" unicode="&#x440;" 
d="M745 262q0 -113 -57 -185q-62 -78 -172 -78q-94 0 -142 55v-198h-95v658h95v-52q50 61 139 61q111 0 174 -77q58 -71 58 -184zM647 262q0 173 -138 173q-68 0 -105 -63q-30 -51 -30 -124q0 -64 36 -110q37 -51 101 -51q136 0 136 175z" />
    <glyph glyph-name="uni0441" unicode="&#x441;" 
d="M711 53q-78 -54 -166 -54q-108 0 -172 80q-60 74 -60 185q0 109 67 184q66 75 175 75q61 0 140 -36l-38 -79q-58 27 -102 27q-71 0 -109 -53q-33 -46 -33 -118q0 -73 28 -120q35 -57 104 -57q61 0 115 38z" />
    <glyph glyph-name="uni0442" unicode="&#x442;" 
d="M758 426h-198v-418h-96v418h-198v88h492v-88z" />
    <glyph glyph-name="uni0443" unicode="&#x443;" 
d="M742 514l-212 -537q-26 -68 -71 -95q-41 -25 -117 -26v89q61 1 83 24q10 10 40 82l-183 463h98l132 -345l135 345h95z" />
    <glyph glyph-name="uni0444" unicode="&#x444;" 
d="M853 251q0 -98 -47 -172q-54 -84 -149 -84q-51 0 -99 36v-174h-95v174q-48 -36 -97 -36q-95 0 -149 84q-46 73 -46 172q0 103 45 180q54 95 150 95q54 0 97 -36v189h95v-189q43 36 99 36q96 0 151 -93q45 -79 45 -182zM755 251q0 62 -20 115q-26 72 -78 72q-60 0 -99 -72
v-221q40 -62 96 -62q55 0 81 61q20 45 20 107zM463 145v221q-39 72 -97 72q-51 0 -77 -73q-20 -53 -20 -114q0 -62 20 -107q25 -61 80 -61q54 0 94 62z" />
    <glyph glyph-name="uni0445" unicode="&#x445;" 
d="M796 8h-115l-169 209l-169 -209h-115l227 281l-182 225h115l124 -154l124 154h115l-182 -225z" />
    <glyph glyph-name="uni0446" unicode="&#x446;" 
d="M738 -144h-95v152h-357v506h95v-418h230v418h96v-418h31v-240z" />
    <glyph glyph-name="uni0447" unicode="&#x447;" 
d="M738 8h-95v244q-114 -81 -188 -81q-79 0 -124 41t-45 120v182h96v-178q0 -43 15 -60q16 -17 58 -17q79 0 188 103v152h95v-506z" />
    <glyph glyph-name="uni0448" unicode="&#x448;" 
d="M818 8h-612v506h95v-418h163v418h95v-418h164v418h95v-506z" />
    <glyph glyph-name="uni0449" unicode="&#x449;" 
d="M835 -144h-96v152h-550v506h96v-418h162v418h96v-418h165v418h95v-418h32v-240z" />
    <glyph glyph-name="uni044A" unicode="&#x44a;" 
d="M744 162q0 -76 -56 -117q-51 -37 -129 -37h-189v418h-90v88h185v-198q143 0 185 -14q94 -29 94 -140zM646 162q0 40 -24 54q-20 12 -63 12h-94v-132h94q87 0 87 66z" />
    <glyph glyph-name="uni044B" unicode="&#x44b;" 
d="M801 8h-95v505h95v-505zM598 162q0 -76 -56 -117q-52 -37 -129 -37h-190v506h95v-198q144 0 186 -14q94 -29 94 -140zM500 162q0 40 -25 54q-19 12 -62 12h-95v-132h95q87 0 87 66z" />
    <glyph glyph-name="uni044C" unicode="&#x44c;" 
d="M699 162q0 -76 -56 -117q-51 -37 -129 -37h-189v506h95v-198q143 0 185 -14q94 -29 94 -140zM601 162q0 40 -24 54q-20 12 -63 12h-94v-132h94q87 0 87 66z" />
    <glyph glyph-name="uni044D" unicode="&#x44d;" 
d="M712 265q0 -114 -68 -189q-71 -77 -182 -77q-78 0 -148 41l48 75q50 -28 100 -28q124 0 151 136h-191v88h191q-29 124 -153 124q-46 0 -100 -30l-48 75q74 43 148 43q111 0 181 -73q71 -73 71 -185z" />
    <glyph glyph-name="uni044E" unicode="&#x44e;" 
d="M839 258q0 -109 -47 -179q-55 -80 -159 -80q-95 0 -149 67q-46 57 -55 157h-148v-215h-96v506h96v-203h149q12 94 59 149q54 63 144 63q104 0 159 -83q47 -72 47 -182zM740 258q0 180 -107 180q-106 0 -106 -180q0 -171 106 -171q107 0 107 171z" />
    <glyph glyph-name="uni044F" unicode="&#x44f;" 
d="M746 8h-95v205h-86l-169 -205h-118l180 222q-101 42 -101 134q0 150 211 150h178v-506zM651 301v125h-83q-112 0 -112 -60q0 -65 112 -65h83z" />
    <glyph glyph-name="uni0451" unicode="&#x451;" 
d="M672 572h-104v104h104v-104zM456 572h-104v104h104v-104zM734 242h-348q14 -154 127 -154q83 0 136 96l84 -43q-85 -142 -220 -142q-110 0 -169 81q-54 73 -54 186q0 109 57 180q63 77 169 77q99 0 160 -71q58 -67 58 -167v-43zM634 331q-30 104 -118 104
q-91 0 -124 -104h242z" />
    <glyph glyph-name="emdash" unicode="&#x2014;" 
d="M1024 326h-1024v84h1024v-84z" />
    <glyph glyph-name="uni2016" unicode="&#x2016;" 
d="M667 -57h-86v850h86v-850zM441 -57h-84v850h84v-850z" />
    <glyph glyph-name="quoteleft" unicode="&#x2018;" 
d="M834 608h-132v111q0 93 86 159l36 -45q-51 -41 -60 -94h70v-131z" />
    <glyph glyph-name="quoteright" unicode="&#x2019;" 
d="M322 746q0 -93 -86 -159l-36 45q51 41 60 94h-70v131h132v-111z" />
    <glyph glyph-name="quotedblleft" unicode="&#x201c;" 
d="M930 608h-131v111q0 93 86 159l36 -45q-52 -41 -61 -94h70v-131zM737 608h-131v111q0 93 86 159l36 -45q-51 -41 -60 -94h69v-131z" />
    <glyph glyph-name="quotedblright" unicode="&#x201d;" 
d="M418 746q0 -93 -86 -159l-36 45q51 41 60 94h-69v131h131v-111zM225 746q0 -93 -86 -159l-36 45q52 41 61 94h-70v131h131v-111z" />
    <glyph glyph-name="ellipsis" unicode="&#x2026;" 
d="M919 305h-132v131h132v-131zM578 305h-132v131h132v-131zM237 305h-132v131h132v-131z" />
    <glyph glyph-name="perthousand" unicode="&#x2030;" 
d="M1004 194q0 -86 -38 -137q-42 -58 -123 -58q-161 0 -161 195q0 87 37 141q43 63 124 63t124 -63q37 -54 37 -141zM342 558q0 -86 -38 -137q-42 -58 -123 -58q-161 0 -161 195q0 88 37 142q42 61 124 61q81 0 124 -61q37 -54 37 -142zM655 711l-576 -712l-54 55l572 707z
M650 194q0 -86 -38 -137q-42 -58 -123 -58q-160 0 -160 195q0 87 37 141q43 63 123 63q81 0 124 -63q37 -54 37 -141zM916 196q0 61 -16 90t-57 29q-75 0 -75 -119q0 -112 75 -112q41 0 57 27t16 85zM255 559q0 63 -16 92q-17 28 -58 28q-75 0 -75 -120q0 -111 75 -111
q41 0 58 26q16 27 16 85zM563 196q0 61 -16 90q-17 29 -58 29q-74 0 -74 -119q0 -112 74 -112q41 0 58 27q16 27 16 85z" />
    <glyph glyph-name="minute" unicode="&#x2032;" 
d="M374 803l-177 -252l-59 35l144 274z" />
    <glyph glyph-name="second" unicode="&#x2033;" 
d="M451 803l-178 -252l-58 35l143 274zM297 803l-177 -252l-59 35l144 274z" />
    <glyph glyph-name="uni203B" unicode="&#x203b;" 
d="M578 622h-132v131h132v-131zM895 305h-131v131h131v-131zM926 10l-56 -56l-358 359l-358 -359l-56 56l359 358l-359 358l56 56l358 -359l358 359l56 -56l-359 -358zM260 305h-131v131h131v-131zM578 -13h-132v131h132v-131z" />
    <glyph glyph-name="Euro" unicode="&#x20ac;" 
d="M783 352l-38 -84h-388q31 -83 102 -130q69 -48 159 -48q144 0 248 131v-136q-92 -86 -248 -86q-124 0 -225 76q-99 75 -136 193h-134l39 84h79q-1 14 -1 28t1 27h-122l38 85h99q36 118 135 193q98 76 227 76q181 0 287 -122q-18 -44 -42 -92q-94 123 -245 123
q-88 0 -157 -50q-69 -49 -101 -128h473l-38 -85h-455q-1 -13 -1 -27t1 -28h443z" />
    <glyph glyph-name="Euro" unicode="&#xe76c;" 
d="M783 352l-38 -84h-388q31 -83 102 -130q69 -48 159 -48q144 0 248 131v-136q-92 -86 -248 -86q-124 0 -225 76q-99 75 -136 193h-134l39 84h79q-1 14 -1 28t1 27h-122l38 85h99q36 118 135 193q98 76 227 76q181 0 287 -122q-18 -44 -42 -92q-94 123 -245 123
q-88 0 -157 -50q-69 -49 -101 -128h473l-38 -85h-455q-1 -13 -1 -27t1 -28h443z" />
    <glyph glyph-name="uni2103" unicode="&#x2103;" 
d="M911 575l-92 -34q-51 128 -177 128q-105 0 -167 -102q-53 -87 -53 -199q0 -108 47 -185q55 -93 157 -93q71 0 118 41q39 35 69 108l88 -36q-42 -101 -103 -149q-68 -55 -172 -55q-144 0 -228 117q-74 104 -74 252q0 154 80 266q91 127 238 127q196 0 269 -186zM356 738
q0 -51 -35 -86q-36 -36 -87 -36q-50 0 -86 36q-35 35 -35 86q0 50 35 86q36 36 86 36q51 0 87 -36q35 -36 35 -86zM300 738q0 26 -19 46q-20 19 -47 19q-26 0 -46 -19q-19 -20 -19 -46q0 -27 19 -46q20 -20 46 -20q27 0 47 20q19 19 19 46z" />
    <glyph glyph-name="uni2116" unicode="&#x2116;" 
d="M973 354q0 -106 -49 -176q-57 -80 -158 -80t-158 80q-50 70 -50 176q0 108 48 182q57 85 160 85t159 -85q48 -74 48 -182zM976 8h-429v70h429v-70zM472 8h-79l-272 591v-591h-73v745h80l270 -589v589h74v-745zM900 354q0 76 -28 130q-35 65 -106 65t-107 -65
q-28 -54 -28 -130q0 -74 29 -124q37 -61 106 -61t104 61q30 50 30 124z" />
    <glyph glyph-name="uni2160" unicode="&#x2160;" 
d="M560 8h-96v745h96v-745z" />
    <glyph glyph-name="uni2161" unicode="&#x2161;" 
d="M712 8h-94v745h94v-745zM407 8h-94v745h94v-745z" />
    <glyph glyph-name="uni2162" unicode="&#x2162;" 
d="M808 8h-91v745h91v-745zM558 8h-91v745h91v-745zM308 8h-91v745h91v-745z" />
    <glyph glyph-name="uni2163" unicode="&#x2163;" 
d="M880 753l-242 -745h-96l-242 745h96l194 -584l193 584h97zM236 8h-92v745h92v-745z" />
    <glyph glyph-name="uni2164" unicode="&#x2164;" 
d="M849 753l-290 -745h-95l-289 745h100l237 -623l237 623h100z" />
    <glyph glyph-name="uni2165" unicode="&#x2165;" 
d="M880 8h-92v745h92v-745zM724 753l-242 -745h-96l-242 745h97l193 -584l194 584h96z" />
    <glyph glyph-name="uni2166" unicode="&#x2166;" 
d="M936 8h-91v745h91v-745zM754 8h-91v745h91v-745zM599 753l-207 -745h-96l-207 745h96l159 -571l159 571h96z" />
    <glyph glyph-name="uni2167" unicode="&#x2167;" 
d="M974 8h-91v745h91v-745zM813 8h-91v745h91v-745zM652 8h-91v745h91v-745zM516 753l-184 -745h-96l-185 745h95l138 -553l137 553h95z" />
    <glyph glyph-name="uni2168" unicode="&#x2168;" 
d="M874 8h-108l-187 312l-188 -312h-108l242 402l-206 343h107l153 -254l152 254h108l-206 -343zM241 8h-91v745h91v-745z" />
    <glyph glyph-name="uni2169" unicode="&#x2169;" 
d="M863 8h-115l-235 318l-235 -318h-117l294 397l-257 348h113l202 -271l200 271h114l-257 -348z" />
    <glyph glyph-name="uni216A" unicode="&#x216a;" 
d="M874 8h-91v745h91v-745zM741 8h-108l-188 312l-187 -312h-108l242 402l-206 343h107l152 -254l153 254h108l-206 -343z" />
    <glyph glyph-name="uni216B" unicode="&#x216b;" 
d="M928 8h-91v745h91v-745zM745 8h-91v745h91v-745zM618 8h-100l-161 306l-159 -306h-102l212 402l-180 343h99l130 -249l131 249h100l-179 -343z" />
    <glyph glyph-name="uni2170" unicode="&#x2170;" 
d="M559 652h-94v101h94v-101zM559 8h-94v515h94v-515z" />
    <glyph glyph-name="uni2171" unicode="&#x2171;" 
d="M701 652h-95v101h95v-101zM418 652h-95v101h95v-101zM701 8h-95v506h95v-506zM418 8h-95v506h95v-506z" />
    <glyph glyph-name="uni2172" unicode="&#x2172;" 
d="M781 652h-95v101h95v-101zM560 652h-95v101h95v-101zM781 8h-95v506h95v-506zM338 652h-95v101h95v-101zM560 8h-95v506h95v-506zM338 8h-95v506h95v-506z" />
    <glyph glyph-name="uni2173" unicode="&#x2173;" 
d="M271 652h-95v101h95v-101zM848 514l-190 -506h-94l-189 506h98l138 -401l138 401h99zM271 8h-95v506h95v-506z" />
    <glyph glyph-name="uni2174" unicode="&#x2174;" 
d="M769 514l-210 -506h-94l-210 506h98l159 -393l159 393h98z" />
    <glyph glyph-name="uni2175" unicode="&#x2175;" 
d="M848 652h-95v101h95v-101zM848 8h-95v506h95v-506zM649 514l-189 -506h-94l-190 506h99l138 -401l138 401h98z" />
    <glyph glyph-name="uni2176" unicode="&#x2176;" 
d="M919 652h-94v101h94v-101zM731 652h-93v101h93v-101zM919 8h-94v506h94v-506zM731 8h-93v506h93v-506zM566 514l-185 -506h-90l-186 506h98l133 -401l133 401h97z" />
    <glyph glyph-name="uni2177" unicode="&#x2177;" 
d="M950 652h-91v101h91v-101zM796 652h-91v101h91v-101zM642 652h-91v101h91v-101zM950 8h-91v506h91v-506zM796 8h-91v506h91v-506zM642 8h-91v506h91v-506zM504 514l-170 -506h-90l-170 506h93l122 -391l121 391h94z" />
    <glyph glyph-name="uni2178" unicode="&#x2178;" 
d="M251 652h-95v101h95v-101zM868 8h-109l-164 202l-163 -202h-109l218 271l-190 235h110l134 -168l135 168h110l-190 -235zM251 8h-95v506h95v-506z" />
    <glyph glyph-name="uni2179" unicode="&#x2179;" 
d="M785 8h-109l-165 202l-163 -202h-109l218 271l-190 235h110l134 -168l136 168h110l-191 -235z" />
    <glyph glyph-name="arrowleft" unicode="&#x2190;" 
d="M1002 330h-802l135 -121l-46 -46l-266 206l266 207l46 -46l-135 -121h802v-79z" />
    <glyph glyph-name="arrowup" unicode="&#x2191;" 
d="M718 590l-45 -46l-122 135v-799h-78v799l-122 -135l-45 46l206 266z" />
    <glyph glyph-name="arrowright" unicode="&#x2192;" 
d="M1002 369l-266 -206l-46 46l135 121h-802v79h802l-135 121l46 46z" />
    <glyph glyph-name="arrowdown" unicode="&#x2193;" 
d="M718 146l-45 46l-122 -135v799h-78v-799l-122 135l-45 -46l206 -266z" />
    <glyph glyph-name="element" unicode="&#x2208;" 
d="M889 73h-480q-273 0 -273 295t273 295h480v-85h-480q-176 0 -192 -166h672v-85h-672q15 -169 192 -169h480v-85z" />
    <glyph glyph-name="product" unicode="&#x220f;" 
d="M783 8h-94v662h-354v-662h-94v745h542v-745z" />
    <glyph glyph-name="summation" unicode="&#x2211;" 
d="M788 8h-552v89l288 289l-288 289v78h534v-87h-395l281 -279l-294 -292h426v-87z" />
    <glyph glyph-name="radical" unicode="&#x221a;" 
d="M866 792l-444 -883l-135 271l-86 -69l-43 63l164 127l95 -197l380 724z" />
    <glyph glyph-name="proportional" unicode="&#x221d;" 
d="M866 189q-54 -41 -134 -41q-110 0 -218 147q-108 -152 -222 -152q-99 0 -157 61q-58 62 -58 161t58 161q58 61 157 61q116 0 222 -147q108 147 218 147q80 0 134 -41l-44 -69q-34 30 -90 30q-48 0 -98 -49q-28 -28 -71 -90q43 -62 71 -90q50 -50 98 -50q56 0 90 30z
M465 368q-44 63 -72 91q-50 48 -101 48q-65 0 -98 -39q-34 -38 -34 -103q0 -66 33 -102q34 -40 99 -40q49 0 100 52q28 27 73 93z" />
    <glyph glyph-name="infinity" unicode="&#x221e;" 
d="M947 365q0 -99 -58 -161q-58 -61 -157 -61q-67 0 -127 49q-41 34 -91 104q-110 -153 -222 -153q-99 0 -157 61q-58 62 -58 161t58 161q58 61 157 61q116 0 222 -147q108 147 218 147q99 0 157 -61q58 -62 58 -161zM864 365q0 65 -34 103q-33 39 -98 39q-48 0 -98 -49
q-28 -28 -71 -90q45 -67 71 -93q50 -52 98 -52q65 0 99 40q33 36 33 102zM465 368q-44 63 -72 91q-50 48 -101 48q-65 0 -98 -39q-34 -38 -34 -103q0 -66 33 -102q34 -40 99 -40q49 0 100 52q28 27 73 93z" />
    <glyph glyph-name="angle" unicode="&#x2220;" 
d="M913 683l-606 -607h558v-82h-754l744 748z" />
    <glyph glyph-name="uni2225" unicode="&#x2225;" 
d="M780 793l-227 -850h-86l227 850h86zM555 793l-227 -850h-84l227 850h84z" />
    <glyph glyph-name="logicaland" unicode="&#x2227;" 
d="M889 84l-72 -44l-305 496l-304 -496l-72 44l376 612z" />
    <glyph glyph-name="logicalor" unicode="&#x2228;" 
d="M889 652l-377 -612l-376 612l72 44l304 -496l305 496z" />
    <glyph glyph-name="intersection" unicode="&#x2229;" 
d="M807 -8h-85v480q0 104 -54 150q-51 43 -156 43q-104 0 -156 -43q-54 -47 -54 -150v-480h-85v480q0 273 295 273t295 -273v-480z" />
    <glyph glyph-name="union" unicode="&#x222a;" 
d="M807 265q0 -273 -295 -273t-295 273v480h85v-480q0 -103 54 -150q52 -43 156 -43q105 0 156 43q54 46 54 150v480h85v-480z" />
    <glyph glyph-name="integral" unicode="&#x222b;" 
d="M656 685l-78 -23q-22 81 -66 81q-51 0 -51 -64t48 -190q44 -113 88 -225q48 -132 48 -208q0 -63 -35 -105q-38 -46 -98 -46q-105 0 -144 144l78 24q22 -81 66 -81q51 0 51 64q0 84 -92 310q-92 225 -92 313q0 66 35 109q35 42 98 42q105 0 144 -145z" />
    <glyph glyph-name="uni222E" unicode="&#x222e;" 
d="M734 369q0 -59 -29 -111q-29 -51 -80 -80q20 -75 20 -122q0 -63 -35 -105q-38 -46 -98 -46q-105 0 -144 144l78 24q22 -81 66 -81q51 0 51 64q0 36 -15 94q-20 -3 -35 -3q-92 0 -158 65q-65 65 -65 157q0 125 110 190q-21 75 -21 120q0 66 35 109q35 42 98 42
q105 0 144 -145l-78 -23q-22 81 -66 81q-51 0 -51 -64q0 -35 16 -92q20 3 36 3q93 0 157 -64t64 -157zM647 369q0 57 -39 96q-40 39 -97 39h-6q39 -93 92 -240q50 42 50 105zM521 233q-32 81 -93 243q-53 -41 -53 -107q0 -56 40 -96t96 -40h10z" />
    <glyph glyph-name="therefore" unicode="&#x2234;" 
d="M578 562h-132v131h132v-131zM848 43h-131v131h131v-131zM307 43h-131v131h131v-131z" />
    <glyph glyph-name="uni2235" unicode="&#x2235;" 
d="M848 562h-131v131h131v-131zM307 562h-131v131h131v-131zM578 43h-132v131h132v-131z" />
    <glyph glyph-name="uni2236" unicode="&#x2236;" 
d="M578 537h-132v131h132v-131zM578 93h-132v131h132v-131z" />
    <glyph glyph-name="uni2237" unicode="&#x2237;" 
d="M834 559h-132v132h132v-132zM322 559h-132v132h132v-132zM834 45h-132v132h132v-132zM322 45h-132v132h132v-132z" />
    <glyph glyph-name="uni223D" unicode="&#x223d;" 
d="M947 371q0 -99 -58 -161q-58 -61 -157 -61q-81 0 -157 71l49 64q53 -55 108 -55q65 0 99 40q33 37 33 102q0 66 -34 103q-33 39 -98 39q-60 0 -127 -79q-17 -21 -94 -138q-101 -153 -219 -153q-99 0 -157 61q-58 62 -58 161t58 161q58 61 157 61q81 0 157 -71l-49 -64
q-53 55 -108 55q-65 0 -98 -39q-34 -38 -34 -103q0 -66 33 -102q34 -40 99 -40q55 0 123 79q31 36 97 138q100 153 220 153q99 0 157 -61q58 -62 58 -161z" />
    <glyph glyph-name="approxequal" unicode="&#x2248;" 
d="M987 549q-50 -88 -100 -125q-61 -46 -154 -46q-73 0 -159 41q-70 38 -142 76q-81 41 -141 41q-66 0 -107 -31q-31 -24 -67 -88l-80 37q50 88 100 126q62 46 154 46q73 0 159 -41q69 -38 140 -76q81 -41 143 -41q65 0 106 32q33 25 68 87zM987 281q-50 -88 -100 -125
q-61 -46 -154 -46q-73 0 -159 41q-70 38 -142 76q-81 41 -141 41q-66 0 -107 -31q-31 -25 -67 -88l-80 37q50 88 100 126q62 46 154 46q73 0 159 -41q69 -38 140 -76q81 -41 143 -41q65 0 106 32q33 24 68 87z" />
    <glyph glyph-name="uni224C" unicode="&#x224c;" 
d="M947 526q0 -100 -58 -161q-58 -62 -157 -62q-81 0 -157 71l49 65q53 -56 108 -56q65 0 99 40q33 37 33 103q0 65 -34 104q-33 38 -98 38q-60 0 -127 -80q-17 -20 -94 -137q-101 -154 -219 -154q-99 0 -157 62q-58 61 -58 161q0 99 58 160q58 62 157 62q81 0 157 -71
l-49 -64q-53 55 -108 55q-65 0 -98 -38q-34 -39 -34 -104q0 -66 33 -103q34 -40 99 -40q55 0 123 80q31 36 97 137q100 154 220 154q99 0 157 -62q58 -61 58 -160zM947 154h-870v82h870v-82zM947 -6h-870v82h870v-82z" />
    <glyph glyph-name="notequal" unicode="&#x2260;" 
d="M866 227h-361l-72 -220l-78 24l64 196h-261v82h287l48 143h-335v82h361l64 195l77 -25l-55 -170h261v-82h-287l-48 -143h335v-82z" />
    <glyph glyph-name="equivalence" unicode="&#x2261;" 
d="M866 552h-708v82h708v-82zM866 327h-708v82h708v-82zM866 102h-708v82h708v-82z" />
    <glyph glyph-name="lessequal" unicode="&#x2264;" 
d="M879 130l-44 -71l-612 377l612 375l44 -71l-496 -304zM802 -4l-44 -71l-613 380l48 70z" />
    <glyph glyph-name="greaterequal" unicode="&#x2265;" 
d="M801 436l-612 -377l-44 71l496 306l-496 304l44 71zM879 305l-613 -380l-44 71l609 379z" />
    <glyph glyph-name="uni226E" unicode="&#x226e;" 
d="M840 69l-44 -72l-122 75v-117h-77v165l-413 254l413 254v153h77v-106l122 75l44 -72l-166 -101v-406zM597 218v312l-253 -156z" />
    <glyph glyph-name="uni226F" unicode="&#x226f;" 
d="M840 374l-413 -254v-165h-77v117l-122 -75l-44 72l166 102v406l-166 101l44 72l122 -75v106h77v-153zM680 374l-253 156v-312z" />
    <glyph glyph-name="uni2299" unicode="&#x2299;" 
d="M931 368q0 -175 -122 -297t-297 -122q-174 0 -297 122q-122 123 -122 297q0 175 122 297t297 122t297 -122t122 -297zM851 368q0 141 -99 240t-240 99t-240 -99t-99 -240t99 -240t240 -99t240 99t99 240zM595 367q0 -35 -25 -58q-24 -25 -59 -25q-34 0 -58 25t-24 59
q0 36 25 59q24 24 60 24q34 0 57 -26q24 -24 24 -58z" />
    <glyph glyph-name="perpendicular" unicode="&#x22a5;" 
d="M866 -5h-708v82h310v664h88v-664h310v-82z" />
    <glyph glyph-name="uni2312" unicode="&#x2312;" 
d="M931 159h-80q0 147 -98 244q-99 96 -241 96t-241 -96q-98 -97 -98 -244h-80q0 178 122 298q121 120 297 120t297 -119q122 -120 122 -299z" />
    <glyph glyph-name="uni2460" unicode="&#x2460;" 
d="M1009 366q0 -207 -145 -352t-352 -145t-352 145t-145 352t145 352t352 145t352 -145t145 -352zM943 366q0 180 -126 305q-125 126 -305 126q-179 0 -305 -126t-126 -305q0 -178 126 -305q127 -126 305 -126q179 0 305 126t126 305zM573 19h-91v536h-131v55q53 0 94 22
q45 25 63 72h65v-685z" />
    <glyph glyph-name="uni2461" unicode="&#x2461;" 
d="M1009 366q0 -207 -145 -352t-352 -145t-352 145t-145 352t145 352t352 145t352 -145t145 -352zM943 366q0 180 -126 305q-125 126 -305 126q-179 0 -305 -126t-126 -305q0 -178 126 -305q127 -126 305 -126q179 0 305 126t126 305zM724 535q0 -71 -49 -138
q-29 -39 -103 -109q-126 -118 -152 -185h303v-84h-420q23 99 80 180q42 60 133 145q59 56 80 84q38 52 38 107q0 92 -123 92q-119 0 -127 -158l-82 31q10 95 60 151q56 60 149 60q92 0 148 -41q65 -47 65 -135z" />
    <glyph glyph-name="uni2462" unicode="&#x2462;" 
d="M1009 366q0 -207 -145 -352t-352 -145t-352 145t-145 352t145 352t352 145t352 -145t145 -352zM943 366q0 180 -126 305q-125 126 -305 126q-179 0 -305 -126t-126 -305q0 -178 126 -305q127 -126 305 -126q179 0 305 126t126 305zM725 204q0 -88 -66 -142
q-60 -50 -150 -50q-171 0 -208 165l82 25q25 -103 126 -103q124 0 124 105q0 122 -116 122h-81v84h69q45 0 76 37q30 37 30 82q0 95 -97 95q-88 0 -106 -99l-83 25q15 75 64 118q50 43 125 43q86 0 137 -48q52 -49 52 -134q0 -98 -88 -151q110 -46 110 -174z" />
    <glyph glyph-name="uni2463" unicode="&#x2463;" 
d="M1009 366q0 -207 -145 -352t-352 -145t-352 145t-145 352t145 352t352 145t352 -145t145 -352zM943 366q0 180 -126 305q-125 126 -305 126q-179 0 -305 -126t-126 -305q0 -178 126 -305q127 -126 305 -126q179 0 305 126t126 305zM714 174h-82v-155h-91v155h-280v84
l288 446h83v-446h82v-84zM541 258v288l-182 -288h182z" />
    <glyph glyph-name="uni2464" unicode="&#x2464;" 
d="M1009 366q0 -207 -145 -352t-352 -145t-352 145t-145 352t145 352t352 145t352 -145t145 -352zM943 366q0 180 -126 305q-125 126 -305 126q-179 0 -305 -126t-126 -305q0 -178 126 -305q127 -126 305 -126q179 0 305 126t126 305zM723 260q0 -105 -55 -175
q-61 -73 -164 -73q-145 0 -201 147l79 34q39 -94 122 -94q127 0 127 161q0 71 -18 105q-24 45 -88 45q-79 0 -116 -74h-80v368h366v-84h-275v-168q48 43 105 43q100 0 152 -70q46 -62 46 -165z" />
    <glyph glyph-name="uni2465" unicode="&#x2465;" 
d="M1009 366q0 -207 -145 -352t-352 -145t-352 145t-145 352t145 352t352 145t352 -145t145 -352zM943 366q0 180 -126 305q-125 126 -305 126q-179 0 -305 -126t-126 -305q0 -178 126 -305q127 -126 305 -126q179 0 305 126t126 305zM742 237q0 -96 -64 -161
q-65 -64 -161 -64q-233 0 -233 338q0 361 233 361q145 0 201 -141l-83 -33q-20 46 -43 64q-28 23 -75 23q-127 0 -142 -228q67 57 147 57q100 0 160 -58q60 -60 60 -158zM650 237q0 129 -128 129q-42 0 -82 -16q-44 -19 -65 -50q11 -201 142 -201q133 0 133 138z" />
    <glyph glyph-name="uni2466" unicode="&#x2466;" 
d="M1009 366q0 -207 -145 -352t-352 -145t-352 145t-145 352t145 352t352 145t352 -145t145 -352zM943 366q0 180 -126 305q-125 126 -305 126q-179 0 -305 -126t-126 -305q0 -178 126 -305q127 -126 305 -126q179 0 305 126t126 305zM735 627q-133 -132 -176 -278
q-33 -112 -33 -330h-96q0 189 36 319q43 157 150 282h-325v84h444v-77z" />
    <glyph glyph-name="uni2467" unicode="&#x2467;" 
d="M1009 366q0 -207 -145 -352t-352 -145t-352 145t-145 352t145 352t352 145t352 -145t145 -352zM943 366q0 180 -126 305q-125 126 -305 126q-179 0 -305 -126t-126 -305q0 -178 126 -305q127 -126 305 -126q179 0 305 126t126 305zM733 210q0 -97 -61 -149
q-58 -49 -157 -49t-159 49q-63 53 -63 149q0 118 110 183q-87 52 -87 145q0 85 57 131q52 42 140 42q89 0 140 -42q57 -45 57 -131q0 -93 -87 -145q110 -65 110 -183zM616 531q0 95 -103 95t-103 -95q0 -44 30 -73q30 -28 74 -28q45 0 74 28q28 28 28 73zM641 213
q0 139 -129 139q-61 0 -94 -38t-33 -101q0 -116 130 -116q126 0 126 116z" />
    <glyph glyph-name="uni2468" unicode="&#x2468;" 
d="M1009 366q0 -207 -145 -352t-352 -145t-352 145t-145 352t145 352t352 145t352 -145t145 -352zM943 366q0 180 -126 305q-125 126 -305 126q-179 0 -305 -126t-126 -305q0 -178 126 -305q127 -126 305 -126q179 0 305 126t126 305zM720 352q0 -340 -224 -340
q-122 0 -172 128l76 35q36 -78 96 -78q71 0 104 73q21 45 29 137q-60 -56 -127 -56q-94 0 -147 61q-49 57 -49 153q0 101 49 169q57 77 153 77q130 0 180 -124q32 -81 32 -235zM629 410q-6 219 -121 219q-57 0 -86 -56q-24 -45 -24 -108q0 -129 111 -129q68 0 120 74z" />
    <glyph glyph-name="uni2469" unicode="&#x2469;" 
d="M1009 366q0 -207 -145 -352t-352 -145t-352 145t-145 352t145 352t352 145t352 -145t145 -352zM943 366q0 180 -126 305q-125 126 -305 126q-179 0 -305 -126t-126 -305q0 -178 126 -305q127 -126 305 -126q179 0 305 126t126 305zM833 364q0 -143 -26 -223
q-43 -129 -157 -129t-156 129q-26 77 -26 223q0 143 26 221q43 126 156 126q114 0 157 -126q26 -78 26 -221zM379 19h-89v538h-108v53q41 0 79 27q38 28 52 67h66v-685zM743 364q0 105 -9 155q-20 108 -84 108q-63 0 -84 -108q-9 -50 -9 -155q0 -268 93 -268t93 268z" />
    <glyph glyph-name="uni2474" unicode="&#x2474;" 
d="M1009 370q0 -136 -56 -264q-55 -128 -153 -226l-58 67q84 84 131 196q48 110 48 227t-48 229q-47 110 -131 194l58 68q98 -99 153 -227q56 -128 56 -264zM572 19h-91v536h-131v55q53 0 94 22q45 25 63 72h65v-685zM282 -53l-58 -67q-98 98 -153 226q-56 128 -56 264
t56 264q55 128 153 227l58 -68q-84 -84 -131 -194q-48 -112 -48 -229t48 -227q47 -112 131 -196z" />
    <glyph glyph-name="uni2475" unicode="&#x2475;" 
d="M1009 370q0 -136 -56 -264q-55 -128 -153 -226l-58 67q84 84 131 196q48 110 48 227t-48 229q-47 110 -131 194l58 68q98 -99 153 -227q56 -128 56 -264zM724 535q0 -71 -49 -138q-28 -38 -103 -109q-126 -119 -152 -185h303v-84h-420q22 100 79 181q41 57 134 144
q58 55 80 84q38 53 38 107q0 92 -123 92q-119 0 -127 -158l-82 31q10 95 62 151q55 60 147 60q91 0 148 -42q65 -46 65 -134zM282 -53l-58 -67q-98 98 -153 226q-56 128 -56 264t56 264q55 128 153 227l58 -68q-84 -84 -131 -194q-48 -112 -48 -229t48 -227
q47 -112 131 -196z" />
    <glyph glyph-name="uni2476" unicode="&#x2476;" 
d="M1009 370q0 -136 -56 -264q-55 -128 -153 -226l-58 67q84 84 131 196q48 110 48 227t-48 229q-47 110 -131 194l58 68q98 -99 153 -227q56 -128 56 -264zM725 204q0 -87 -66 -141q-61 -51 -150 -51q-172 0 -208 165l82 25q25 -103 126 -103q124 0 124 105q0 122 -116 122
h-81v84h69q45 0 76 36q30 37 30 83q0 95 -97 95q-88 0 -106 -99l-83 25q15 76 64 119q49 42 125 42q86 0 137 -48q52 -49 52 -134q0 -98 -88 -151q110 -46 110 -174zM282 -53l-58 -67q-98 98 -153 226q-56 128 -56 264t56 264q55 128 153 227l58 -68q-84 -84 -131 -194
q-48 -112 -48 -229t48 -227q47 -112 131 -196z" />
    <glyph glyph-name="uni2477" unicode="&#x2477;" 
d="M1009 370q0 -136 -56 -264q-55 -128 -153 -226l-58 67q84 84 131 196q48 110 48 227t-48 229q-47 110 -131 194l58 68q98 -99 153 -227q56 -128 56 -264zM714 174h-82v-155h-91v155h-280v84l288 446h83v-446h82v-84zM282 -53l-58 -67q-98 98 -153 226q-56 128 -56 264
t56 264q55 128 153 227l58 -68q-84 -84 -131 -194q-48 -112 -48 -229t48 -227q47 -112 131 -196zM541 258v288l-182 -288h182z" />
    <glyph glyph-name="uni2478" unicode="&#x2478;" 
d="M1009 370q0 -136 -56 -264q-55 -128 -153 -226l-58 67q84 84 131 196q48 110 48 227t-48 229q-47 110 -131 194l58 68q98 -99 153 -227q56 -128 56 -264zM723 260q0 -105 -55 -175q-61 -73 -164 -73q-145 0 -201 147l79 34q39 -94 122 -94q127 0 127 161q0 71 -18 104
q-24 46 -88 46q-81 0 -116 -74h-80v368h366v-84h-275v-168q48 43 105 43q98 0 151 -71q47 -62 47 -164zM282 -53l-58 -67q-98 98 -153 226q-56 128 -56 264t56 264q55 128 153 227l58 -68q-84 -84 -131 -194q-48 -112 -48 -229t48 -227q47 -112 131 -196z" />
    <glyph glyph-name="uni2479" unicode="&#x2479;" 
d="M1009 370q0 -136 -56 -264q-55 -128 -153 -226l-58 67q84 84 131 196q48 110 48 227t-48 229q-47 110 -131 194l58 68q98 -99 153 -227q56 -128 56 -264zM742 237q0 -96 -64 -161q-65 -64 -161 -64q-233 0 -233 338q0 361 233 361q143 0 201 -141l-83 -33q-22 47 -43 64
q-27 23 -75 23q-127 0 -142 -228q66 57 147 57q99 0 160 -59q60 -60 60 -157zM282 -53l-58 -67q-98 98 -153 226q-56 128 -56 264t56 264q55 128 153 227l58 -68q-84 -84 -131 -194q-48 -112 -48 -229t48 -227q47 -112 131 -196zM650 237q0 129 -128 129q-42 0 -82 -16
q-44 -18 -65 -50q9 -201 142 -201t133 138z" />
    <glyph glyph-name="uni247A" unicode="&#x247a;" 
d="M1009 370q0 -136 -56 -264q-55 -128 -153 -226l-58 67q84 84 131 196q48 110 48 227t-48 229q-47 110 -131 194l58 68q98 -99 153 -227q56 -128 56 -264zM734 627q-133 -131 -176 -278q-33 -111 -33 -330h-96q0 189 36 319q43 157 150 282h-324v84h443v-77zM282 -53
l-58 -67q-98 98 -153 226q-56 128 -56 264t56 264q55 128 153 227l58 -68q-84 -84 -131 -194q-48 -112 -48 -229t48 -227q47 -112 131 -196z" />
    <glyph glyph-name="uni247B" unicode="&#x247b;" 
d="M1009 370q0 -136 -56 -264q-55 -128 -153 -226l-58 67q84 84 131 196q48 110 48 227t-48 229q-47 110 -131 194l58 68q98 -99 153 -227q56 -128 56 -264zM732 210q0 -97 -58 -147q-60 -51 -159 -51q-100 0 -159 48q-64 53 -64 150q0 118 111 183q-87 52 -87 145
q0 86 57 131q51 42 139 42t140 -42q57 -46 57 -131q0 -93 -87 -145q110 -65 110 -183zM282 -53l-58 -67q-98 98 -153 226q-56 128 -56 264t56 264q55 128 153 227l58 -68q-84 -84 -131 -194q-48 -112 -48 -229t48 -227q47 -112 131 -196zM616 531q0 95 -104 95
q-103 0 -103 -95q0 -45 29 -73q30 -28 76 -28q45 0 74 28q28 28 28 73zM640 213q0 64 -34 102q-33 37 -95 37q-61 0 -93 -37q-33 -38 -33 -102q0 -116 130 -116q125 0 125 116z" />
    <glyph glyph-name="uni247C" unicode="&#x247c;" 
d="M1009 370q0 -136 -56 -264q-55 -128 -153 -226l-58 67q84 84 131 196q48 110 48 227t-48 229q-47 110 -131 194l58 68q98 -99 153 -227q56 -128 56 -264zM719 352q0 -340 -224 -340q-121 0 -171 128l75 35q35 -78 96 -78q71 0 104 73q21 45 29 137q-61 -56 -127 -56
q-94 0 -147 61q-49 57 -49 153q0 102 49 169q56 77 153 77q130 0 180 -124q32 -81 32 -235zM282 -53l-58 -67q-98 98 -153 226q-56 128 -56 264t56 264q55 128 153 227l58 -68q-84 -84 -131 -194q-48 -112 -48 -229t48 -227q47 -112 131 -196zM628 410q-6 219 -121 219
q-57 0 -86 -56q-23 -45 -23 -108q0 -129 110 -129q67 0 120 74z" />
    <glyph glyph-name="uni247D" unicode="&#x247d;" 
d="M1009 370q0 -136 -56 -264q-55 -128 -153 -226l-58 67q84 84 131 196q48 110 48 227t-48 229q-47 110 -131 194l58 68q98 -99 153 -227q56 -128 56 -264zM833 364q0 -352 -183 -352q-115 0 -157 129q-26 76 -26 223q0 144 26 221q43 126 157 126q183 0 183 -347zM379 19
h-89v538h-108v53q40 0 78 28q39 28 53 66h66v-685zM282 -53l-58 -67q-98 98 -153 226q-56 128 -56 264t56 264q55 128 153 227l58 -68q-84 -84 -131 -194q-48 -112 -48 -229t48 -227q47 -112 131 -196zM743 364q0 105 -9 155q-20 108 -84 108t-85 -108q-9 -49 -9 -155
q0 -268 94 -268q93 0 93 268z" />
    <glyph glyph-name="uni247E" unicode="&#x247e;" 
d="M1009 370q0 -136 -56 -264q-55 -128 -153 -226l-58 67q84 84 131 196q48 110 48 227t-48 229q-47 110 -131 194l58 68q98 -99 153 -227q56 -128 56 -264zM742 19h-89v538h-107v53q40 0 79 28q38 28 52 66h65v-685zM427 19h-89v538h-108v53q40 0 79 28q38 28 52 66h66
v-685zM282 -53l-58 -67q-98 98 -153 226q-56 128 -56 264t56 264q55 128 153 227l58 -68q-84 -84 -131 -194q-48 -112 -48 -229t48 -227q47 -112 131 -196z" />
    <glyph glyph-name="uni247F" unicode="&#x247f;" 
d="M1009 370q0 -136 -56 -264q-55 -128 -153 -226l-58 67q84 84 131 196q48 110 48 227t-48 229q-47 110 -131 194l58 68q98 -99 153 -227q56 -128 56 -264zM823 535q0 -71 -37 -138q-21 -39 -77 -109q-98 -120 -117 -185h189v-84h-298q17 100 60 181q31 57 102 144
q44 55 61 84q28 53 28 107q0 92 -93 92q-90 0 -96 -158l-83 31q7 91 56 151q50 60 123 60q72 0 123 -42q59 -48 59 -134zM379 19h-89v538h-108v53q40 0 78 28q39 28 53 66h66v-685zM282 -53l-58 -67q-98 98 -153 226q-56 128 -56 264t56 264q55 128 153 227l58 -68
q-84 -84 -131 -194q-48 -112 -48 -229t48 -227q47 -112 131 -196z" />
    <glyph glyph-name="uni2480" unicode="&#x2480;" 
d="M1009 370q0 -136 -56 -264q-55 -128 -153 -226l-58 67q84 84 131 196q48 110 48 227t-48 229q-47 110 -131 194l58 68q98 -99 153 -227q56 -128 56 -264zM833 204q0 -86 -62 -141q-57 -51 -133 -51q-154 0 -183 165l77 25q21 -103 106 -103q102 0 102 105q0 122 -96 122
h-67v84h57q38 0 63 36q26 37 26 83q0 95 -81 95q-74 0 -89 -99l-79 25q12 74 58 117q46 44 110 44q74 0 124 -49q49 -49 49 -133q0 -98 -74 -151q92 -46 92 -174zM379 19h-89v538h-108v53q40 0 78 28q39 28 53 66h66v-685zM282 -53l-58 -67q-98 98 -153 226q-56 128 -56 264
t56 264q55 128 153 227l58 -68q-84 -84 -131 -194q-48 -112 -48 -229t48 -227q47 -112 131 -196z" />
    <glyph glyph-name="uni2481" unicode="&#x2481;" 
d="M1009 370q0 -136 -56 -264q-55 -128 -153 -226l-58 67q84 84 131 196q48 110 48 227t-48 229q-47 110 -131 194l58 68q98 -99 153 -227q56 -128 56 -264zM842 174h-70v-155h-85v155h-240v84l246 446h79v-446h70v-84zM379 19h-89v538h-108v53q40 0 78 28q39 28 53 66h66
v-685zM282 -53l-58 -67q-98 98 -153 226q-56 128 -56 264t56 264q55 128 153 227l58 -68q-84 -84 -131 -194q-48 -112 -48 -229t48 -227q47 -112 131 -196zM687 258v268l-144 -268h144z" />
    <glyph glyph-name="uni2482" unicode="&#x2482;" 
d="M1009 370q0 -136 -56 -264q-55 -128 -153 -226l-58 67q84 84 131 196q48 110 48 227t-48 229q-47 110 -131 194l58 68q98 -99 153 -227q56 -128 56 -264zM839 260q0 -114 -49 -181q-50 -67 -138 -67q-62 0 -112 37q-55 39 -77 110l76 34q31 -94 100 -94q105 0 105 161
q0 66 -12 99q-19 51 -75 51q-67 0 -97 -74h-68v368h306v-84h-221v-168q39 43 87 43q175 0 175 -235zM379 19h-89v538h-108v53q40 0 78 28q39 28 53 66h66v-685zM282 -53l-58 -67q-98 98 -153 226q-56 128 -56 264t56 264q55 128 153 227l58 -68q-84 -84 -131 -194
q-48 -112 -48 -229t48 -227q47 -112 131 -196z" />
    <glyph glyph-name="uni2483" unicode="&#x2483;" 
d="M1009 370q0 -136 -56 -264q-55 -128 -153 -226l-58 67q84 84 131 196q48 110 48 227t-48 229q-47 110 -131 194l58 68q98 -99 153 -227q56 -128 56 -264zM836 237q0 -108 -57 -168q-51 -57 -134 -57q-190 0 -190 338q0 361 193 361q62 0 110 -35q52 -38 75 -106l-89 -33
q-17 47 -35 64q-22 23 -61 23q-44 0 -66 -51q-23 -52 -29 -167q58 47 102 47q82 0 131 -56q50 -57 50 -160zM379 19h-89v538h-108v53q40 0 78 28q39 28 53 66h66v-685zM282 -53l-58 -67q-98 98 -153 226q-56 128 -56 264t56 264q55 128 153 227l58 -68q-84 -84 -131 -194
q-48 -112 -48 -229t48 -227q47 -112 131 -196zM739 237q0 69 -18 98q-19 31 -69 31q-62 0 -99 -66q11 -201 92 -201q94 0 94 138z" />
    <glyph glyph-name="uni2484" unicode="&#x2484;" 
d="M1009 370q0 -136 -56 -264q-55 -128 -153 -226l-58 67q84 84 131 196q48 110 48 227t-48 229q-47 110 -131 194l58 68q98 -99 153 -227q56 -128 56 -264zM804 627q-91 -114 -123 -269q-26 -121 -26 -339h-87q0 199 22 319q30 159 109 282h-242v84h347v-77zM379 19h-89
v538h-108v53q40 0 78 28q39 28 53 66h66v-685zM282 -53l-58 -67q-98 98 -153 226q-56 128 -56 264t56 264q55 128 153 227l58 -68q-84 -84 -131 -194q-48 -112 -48 -229t48 -227q47 -112 131 -196z" />
    <glyph glyph-name="uni2485" unicode="&#x2485;" 
d="M1009 370q0 -136 -56 -264q-55 -128 -153 -226l-58 67q84 84 131 196q48 110 48 227t-48 229q-47 110 -131 194l58 68q98 -99 153 -227q56 -128 56 -264zM837 210q0 -96 -57 -149q-52 -49 -137 -49q-86 0 -139 48q-60 54 -60 150q0 118 95 183q-74 52 -74 145
q0 85 52 131q47 42 123 42t124 -42q53 -46 53 -131q0 -93 -74 -145q94 -65 94 -183zM379 19h-89v538h-108v53q40 0 78 28q39 28 53 66h66v-685zM282 -53l-58 -67q-98 98 -153 226q-56 128 -56 264t56 264q55 128 153 227l58 -68q-84 -84 -131 -194q-48 -112 -48 -229
t48 -227q47 -112 131 -196zM724 531q0 95 -84 95q-82 0 -82 -95q0 -46 24 -73q22 -28 60 -28t60 28q22 27 22 73zM743 213q0 139 -103 139q-101 0 -101 -139q0 -116 104 -116q100 0 100 116z" />
    <glyph glyph-name="uni2486" unicode="&#x2486;" 
d="M1009 370q0 -136 -56 -264q-55 -128 -153 -226l-58 67q84 84 131 196q48 110 48 227t-48 229q-47 110 -131 194l58 68q98 -99 153 -227q56 -128 56 -264zM824 352q0 -340 -195 -340q-112 0 -155 128l75 35q30 -78 80 -78q60 0 84 66q12 35 19 130q-34 -42 -97 -42
q-81 0 -125 60q-45 59 -45 154q0 101 44 169q48 77 131 77q184 0 184 -359zM379 19h-89v538h-108v53q40 0 78 28q39 28 53 66h66v-685zM282 -53l-58 -67q-98 98 -153 226q-56 128 -56 264t56 264q55 128 153 227l58 -68q-84 -84 -131 -194q-48 -112 -48 -229t48 -227
q47 -112 131 -196zM732 410q-3 113 -23 164q-22 55 -69 55q-82 0 -82 -164q0 -66 19 -97q18 -32 63 -32q48 0 92 74z" />
    <glyph glyph-name="uni2487" unicode="&#x2487;" 
d="M1009 370q0 -136 -56 -264q-55 -128 -153 -226l-58 67q84 84 131 196q48 110 48 227t-48 229q-47 110 -131 194l58 68q98 -99 153 -227q56 -128 56 -264zM861 361q0 -349 -172 -349q-97 0 -141 128q-32 90 -32 223q0 132 32 221q44 127 141 127q172 0 172 -350zM515 535
q0 -118 -104 -247q-96 -118 -116 -185h189v-84h-264q28 -38 62 -72l-58 -67q-98 98 -153 226q-56 128 -56 264t56 264q55 128 153 227l58 -68q-84 -84 -131 -194q-48 -112 -48 -229q0 -164 91 -310q18 83 60 154q30 52 93 130q79 98 79 191q0 92 -83 92q-90 0 -96 -158
l-83 31q7 91 57 151q49 60 122 60q71 0 118 -42q54 -47 54 -134zM772 363q0 138 -18 202q-20 62 -65 62q-46 0 -64 -64q-20 -64 -20 -202t19 -200q19 -65 65 -65q45 0 65 66q18 63 18 201z" />
    <glyph glyph-name="uni2488" unicode="&#x2488;" 
d="M936 8h-111v110h111v-110zM464 8h-95v584h-147v59q58 0 103 24q49 27 67 78h72v-745z" />
    <glyph glyph-name="uni2489" unicode="&#x2489;" 
d="M936 8h-111v110h111v-110zM631 570q0 -74 -54 -151q-35 -49 -111 -120q-145 -135 -169 -203h333v-88h-457q25 106 85 193q48 70 142 157q64 58 89 93q43 59 43 119q0 100 -133 100q-129 0 -138 -171l-89 33q11 103 67 164q60 65 160 65t162 -45q70 -51 70 -146z" />
    <glyph glyph-name="uni248A" unicode="&#x248a;" 
d="M936 8h-111v110h111v-110zM642 210q0 -95 -71 -154q-66 -57 -163 -57q-187 0 -227 180l89 28q26 -123 138 -123q59 0 98 34q38 34 38 92q0 60 -35 99q-35 40 -93 40h-88v79h74q44 0 81 45q37 46 37 91q0 106 -107 106q-99 0 -118 -111l-88 27q16 81 69 128q55 47 137 47
q94 0 150 -52q55 -52 55 -145q0 -107 -95 -164q58 -25 88 -75q31 -51 31 -115z" />
    <glyph glyph-name="uni248B" unicode="&#x248b;" 
d="M936 8h-111v110h111v-110zM654 181h-93v-172h-95v172h-303v88l312 484h86v-484h93v-88zM466 269v309l-197 -309h197z" />
    <glyph glyph-name="uni248C" unicode="&#x248c;" 
d="M936 8h-111v110h111v-110zM654 271q0 -115 -61 -191q-66 -81 -177 -81q-158 0 -218 161l83 35q42 -105 135 -105q73 0 109 56q31 47 31 125q0 166 -117 166q-86 0 -127 -83h-87v399h400v-88h-304v-179q44 42 118 42q107 0 164 -78q51 -69 51 -179z" />
    <glyph glyph-name="uni248D" unicode="&#x248d;" 
d="M936 8h-111v110h111v-110zM702 250q0 -105 -69 -178q-71 -73 -175 -73q-141 0 -204 121q-49 93 -49 248q0 393 253 393q156 0 218 -153l-88 -34q-23 53 -47 73q-29 23 -83 23q-136 0 -154 -249q75 64 160 64q109 0 174 -64q64 -62 64 -171zM604 250q0 68 -37 106
q-36 38 -103 38q-44 0 -90 -21q-46 -20 -70 -55q12 -228 154 -228q67 0 108 48q38 44 38 112z" />
    <glyph glyph-name="uni248E" unicode="&#x248e;" 
d="M936 8h-111v110h111v-110zM707 669q-149 -147 -197 -302q-38 -121 -38 -359h-101q0 220 39 352q48 162 178 305h-393v88h512v-84z" />
    <glyph glyph-name="uni248F" unicode="&#x248f;" 
d="M936 8h-111v110h111v-110zM674 216q0 -106 -67 -163q-62 -54 -171 -54q-108 0 -172 54q-69 58 -69 163q0 129 119 199q-94 57 -94 157q0 93 62 143q57 46 152 46t153 -46q61 -50 61 -143q0 -100 -94 -157q120 -70 120 -199zM550 566q0 103 -116 103t-116 -103
q0 -48 34 -79q34 -30 83 -30t82 30q33 31 33 79zM575 221q0 148 -142 148q-139 0 -139 -148q0 -131 142 -131q139 0 139 131z" />
    <glyph glyph-name="uni2490" unicode="&#x2490;" 
d="M936 8h-111v110h111v-110zM646 371q0 -372 -245 -372q-131 0 -186 142l85 40q37 -91 101 -91q80 0 116 79q22 51 30 150q-63 -59 -138 -59q-103 0 -160 67q-53 63 -53 167q0 110 53 184q60 83 167 83q141 0 195 -135q35 -88 35 -255zM548 434q-6 236 -132 236
q-62 0 -95 -60q-27 -48 -27 -116q0 -142 123 -142q73 0 131 82z" />
    <glyph glyph-name="uni2491" unicode="&#x2491;" 
d="M811 380q0 -156 -32 -241q-51 -140 -191 -140q-141 0 -192 140q-30 84 -30 241q0 159 30 242q51 139 192 139q140 0 192 -139q31 -84 31 -242zM936 8h-111v110h111v-110zM276 8h-94v583h-110v60q95 6 128 102h76v-745zM706 380q0 291 -118 291q-78 0 -105 -120
q-12 -58 -12 -171q0 -112 12 -171q27 -120 105 -120q118 0 118 291z" />
    <glyph glyph-name="uni2492" unicode="&#x2492;" 
d="M701 8h-94v583h-110v60q95 6 128 102h76v-745zM936 8h-111v110h111v-110zM349 8h-94v583h-111v60q96 6 128 102h77v-745z" />
    <glyph glyph-name="uni2493" unicode="&#x2493;" 
d="M774 574q0 -79 -46 -152q-25 -39 -102 -124q-110 -119 -137 -203h278v-87h-391q21 104 65 186q43 77 119 158q117 124 117 222q0 47 -30 73q-30 24 -78 24q-101 0 -112 -156l-84 24q8 93 54 154q54 68 142 68q90 0 146 -48q59 -50 59 -139zM936 8h-111v110h111v-110z
M276 8h-94v583h-110v60q95 6 128 102h76v-745z" />
    <glyph glyph-name="uni2494" unicode="&#x2494;" 
d="M799 209q0 -97 -64 -153q-64 -57 -163 -57q-162 0 -203 167l74 29q33 -109 129 -109q60 0 95 32q34 33 34 91q0 63 -33 100q-33 35 -95 35h-67v89h47q48 0 86 43t38 92q0 47 -26 75q-26 29 -73 29q-81 0 -102 -109l-84 35q14 72 64 118q50 45 122 45q90 0 141 -51
q52 -52 52 -142q0 -116 -99 -169q59 -19 94 -74q33 -51 33 -116zM936 8h-111v110h111v-110zM276 8h-94v583h-110v60q95 6 128 102h76v-745z" />
    <glyph glyph-name="uni2495" unicode="&#x2495;" 
d="M810 191h-87v-182h-94v182h-292v75l296 487h90v-475h87v-87zM936 8h-111v110h111v-110zM276 8h-94v583h-110v60q95 6 128 102h76v-745zM629 278v305l-190 -305h190z" />
    <glyph glyph-name="uni2496" unicode="&#x2496;" 
d="M800 265q0 -117 -57 -189q-61 -77 -175 -77q-135 0 -194 150l82 38q40 -98 112 -98q134 0 134 176q0 168 -111 168q-89 0 -126 -70h-68v390h361v-87h-265v-176q42 33 98 33q101 0 159 -81q50 -72 50 -177zM936 8h-111v110h111v-110zM276 8h-94v583h-110v60q95 6 128 102
h76v-745z" />
    <glyph glyph-name="uni2497" unicode="&#x2497;" 
d="M796 250q0 -114 -51 -179q-56 -72 -167 -72q-133 0 -182 128q-32 83 -32 241q0 393 214 393q148 0 190 -133l-84 -42q-32 85 -106 85q-108 0 -117 -245q58 53 134 53q97 0 151 -67q50 -61 50 -162zM936 8h-111v110h111v-110zM276 8h-94v583h-110v60q95 6 128 102h76v-745
zM698 250q0 60 -26 96q-30 42 -87 42q-72 0 -124 -56q4 -102 18 -151q28 -92 99 -92q120 0 120 161z" />
    <glyph glyph-name="uni2498" unicode="&#x2498;" 
d="M812 665q-98 -115 -139 -214q-43 -105 -49 -251q-2 -48 -2 -192h-96q0 124 2 184q6 148 41 254q37 104 126 220h-301v87h418v-88zM936 8h-111v110h111v-110zM276 8h-94v583h-110v60q95 6 128 102h76v-745z" />
    <glyph glyph-name="uni2499" unicode="&#x2499;" 
d="M799 227q0 -106 -58 -166q-58 -62 -162 -62q-106 0 -166 62q-61 60 -61 166q0 132 123 189q-97 42 -97 153q0 87 55 139q55 53 144 53q88 0 142 -53q55 -52 55 -139q0 -109 -96 -153q121 -55 121 -189zM936 8h-111v110h111v-110zM276 8h-94v583h-110v60q95 6 128 102h76
v-745zM677 569q0 102 -100 102q-102 0 -102 -102q0 -111 103 -111q99 0 99 111zM701 222q0 63 -31 102q-34 43 -96 43q-60 0 -93 -42q-31 -41 -31 -103q0 -61 33 -97q35 -36 96 -36q122 0 122 133z" />
    <glyph glyph-name="uni249A" unicode="&#x249a;" 
d="M811 371q0 -372 -240 -372q-59 0 -104 36q-44 36 -65 93l75 43q40 -82 94 -82q134 0 142 242q-49 -63 -135 -63q-103 0 -158 67q-51 63 -51 167q0 111 50 180q57 79 163 79q142 0 194 -134q35 -87 35 -256zM936 8h-111v110h111v-110zM276 8h-94v583h-110v60q95 6 128 102
h76v-745zM713 431q-2 109 -18 155q-29 85 -113 85q-115 0 -115 -169q0 -144 119 -144q79 0 127 73z" />
    <glyph glyph-name="uni249B" unicode="&#x249b;" 
d="M822 380q0 -157 -27 -241q-45 -140 -170 -140t-170 140q-28 84 -28 241q0 159 28 242q45 139 170 139t170 -139q27 -83 27 -242zM936 8h-111v110h111v-110zM420 574q0 -84 -33 -152q-27 -56 -89 -124q-110 -119 -136 -203h247v-87h-361q22 104 66 186q43 77 118 158
q91 96 91 222q0 97 -92 97q-49 0 -72 -38q-24 -38 -30 -118l-84 24q9 96 49 154q49 68 137 68t139 -49q50 -48 50 -138zM729 380q0 291 -104 291q-105 0 -105 -291t105 -291q104 0 104 291z" />
    <glyph glyph-name="SF100000" unicode="&#x2500;" 
d="M1024 331h-1024v73h1024v-73z" />
    <glyph glyph-name="uni2501" unicode="&#x2501;" 
d="M1024 308h-1024v119h1024v-119z" />
    <glyph glyph-name="SF110000" unicode="&#x2502;" 
d="M549 -144h-73v1024h73v-1024z" />
    <glyph glyph-name="uni2503" unicode="&#x2503;" 
d="M572 -144h-119v1024h119v-1024z" />
    <glyph glyph-name="uni2504" unicode="&#x2504;" 
d="M959 331h-224v73h224v-73zM620 331h-221v73h221v-73zM284 331h-221v73h221v-73z" />
    <glyph glyph-name="uni2505" unicode="&#x2505;" 
d="M959 308h-224v119h224v-119zM620 308h-221v119h221v-119zM284 308h-221v119h221v-119z" />
    <glyph glyph-name="uni2506" unicode="&#x2506;" 
d="M549 596h-73v221h73v-221zM549 260h-73v221h73v-221zM549 -79h-73v224h73v-224z" />
    <glyph glyph-name="uni2507" unicode="&#x2507;" 
d="M572 596h-119v221h119v-221zM572 260h-119v221h119v-221zM572 -79h-119v224h119v-224z" />
    <glyph glyph-name="uni2508" unicode="&#x2508;" 
d="M991 331h-199v73h199v-73zM735 331h-199v73h199v-73zM483 331h-199v73h199v-73zM227 331h-195v73h195v-73z" />
    <glyph glyph-name="uni2509" unicode="&#x2509;" 
d="M991 308h-199v119h199v-119zM735 308h-199v119h199v-119zM483 308h-199v119h199v-119zM227 308h-195v119h195v-119z" />
    <glyph glyph-name="uni250A" unicode="&#x250a;" 
d="M549 653h-73v195h73v-195zM549 397h-73v199h73v-199zM549 145h-73v199h73v-199zM549 -111h-73v199h73v-199z" />
    <glyph glyph-name="uni250B" unicode="&#x250b;" 
d="M572 653h-119v195h119v-195zM572 397h-119v199h119v-199zM572 145h-119v199h119v-199zM572 -111h-119v199h119v-199z" />
    <glyph glyph-name="SF010000" unicode="&#x250c;" 
d="M1024 331h-475v-475h-73v548h548v-73z" />
    <glyph glyph-name="uni250D" unicode="&#x250d;" 
d="M1024 308h-475v-452h-73v571h548v-119z" />
    <glyph glyph-name="uni250E" unicode="&#x250e;" 
d="M1024 331h-452v-475h-119v548h571v-73z" />
    <glyph glyph-name="uni250F" unicode="&#x250f;" 
d="M1024 308h-452v-452h-119v571h571v-119z" />
    <glyph glyph-name="SF030000" unicode="&#x2510;" 
d="M549 -144h-73v475h-476v73h549v-548z" />
    <glyph glyph-name="uni2511" unicode="&#x2511;" 
d="M549 -144h-73v452h-476v119h549v-571z" />
    <glyph glyph-name="uni2512" unicode="&#x2512;" 
d="M572 -144h-119v475h-453v73h572v-548z" />
    <glyph glyph-name="uni2513" unicode="&#x2513;" 
d="M572 -144h-119v452h-453v119h572v-571z" />
    <glyph glyph-name="SF020000" unicode="&#x2514;" 
d="M1024 331h-548v549h73v-476h475v-73z" />
    <glyph glyph-name="uni2515" unicode="&#x2515;" 
d="M1024 308h-548v572h73v-453h475v-119z" />
    <glyph glyph-name="uni2516" unicode="&#x2516;" 
d="M1024 331h-571v549h119v-476h452v-73z" />
    <glyph glyph-name="uni2517" unicode="&#x2517;" 
d="M1024 308h-571v572h119v-453h452v-119z" />
    <glyph glyph-name="SF040000" unicode="&#x2518;" 
d="M549 331h-549v73h476v476h73v-549z" />
    <glyph glyph-name="uni2519" unicode="&#x2519;" 
d="M549 308h-549v119h476v453h73v-572z" />
    <glyph glyph-name="uni251A" unicode="&#x251a;" 
d="M572 331h-572v73h453v476h119v-549z" />
    <glyph glyph-name="uni251B" unicode="&#x251b;" 
d="M572 308h-572v119h453v453h119v-572z" />
    <glyph glyph-name="SF080000" unicode="&#x251c;" 
d="M1024 331h-475v-475h-73v1024h73v-476h475v-73z" />
    <glyph glyph-name="uni251D" unicode="&#x251d;" 
d="M1024 308h-475v-452h-73v1024h73v-453h475v-119z" />
    <glyph glyph-name="uni251E" unicode="&#x251e;" 
d="M1024 331h-475v-475h-73v475h-23v549h119v-476h452v-73z" />
    <glyph glyph-name="uni251F" unicode="&#x251f;" 
d="M1024 331h-452v-475h-119v548h23v476h73v-476h475v-73z" />
    <glyph glyph-name="uni2520" unicode="&#x2520;" 
d="M1024 331h-452v-475h-119v1024h119v-476h452v-73z" />
    <glyph glyph-name="uni2521" unicode="&#x2521;" 
d="M1024 308h-475v-452h-73v452h-23v572h119v-453h452v-119z" />
    <glyph glyph-name="uni2522" unicode="&#x2522;" 
d="M1024 308h-452v-452h-119v571h23v453h73v-453h475v-119z" />
    <glyph glyph-name="uni2523" unicode="&#x2523;" 
d="M1024 308h-452v-452h-119v1024h119v-453h452v-119z" />
    <glyph glyph-name="SF090000" unicode="&#x2524;" 
d="M549 -144h-73v475h-476v73h476v476h73v-1024z" />
    <glyph glyph-name="uni2525" unicode="&#x2525;" 
d="M549 -144h-73v452h-476v119h476v453h73v-1024z" />
    <glyph glyph-name="uni2526" unicode="&#x2526;" 
d="M572 331h-23v-475h-73v475h-476v73h453v476h119v-549z" />
    <glyph glyph-name="uni2527" unicode="&#x2527;" 
d="M572 -144h-119v475h-453v73h476v476h73v-549h23v-475z" />
    <glyph glyph-name="uni2528" unicode="&#x2528;" 
d="M572 -144h-119v475h-453v73h453v476h119v-1024z" />
    <glyph glyph-name="uni2529" unicode="&#x2529;" 
d="M572 308h-23v-452h-73v452h-476v119h453v453h119v-572z" />
    <glyph glyph-name="uni252A" unicode="&#x252a;" 
d="M572 -144h-119v452h-453v119h476v453h73v-453h23v-571z" />
    <glyph glyph-name="uni252B" unicode="&#x252b;" 
d="M572 -144h-119v452h-453v119h453v453h119v-1024z" />
    <glyph glyph-name="SF060000" unicode="&#x252c;" 
d="M1024 331h-475v-475h-73v475h-476v73h1024v-73z" />
    <glyph glyph-name="uni252D" unicode="&#x252d;" 
d="M1024 331h-475v-475h-73v452h-476v119h549v-23h475v-73z" />
    <glyph glyph-name="uni252E" unicode="&#x252e;" 
d="M1024 308h-475v-452h-73v475h-476v73h476v23h548v-119z" />
    <glyph glyph-name="uni252F" unicode="&#x252f;" 
d="M1024 308h-475v-452h-73v452h-476v119h1024v-119z" />
    <glyph glyph-name="uni2530" unicode="&#x2530;" 
d="M1024 331h-452v-475h-119v475h-453v73h1024v-73z" />
    <glyph glyph-name="uni2531" unicode="&#x2531;" 
d="M1024 331h-452v-475h-119v452h-453v119h572v-23h452v-73z" />
    <glyph glyph-name="uni2532" unicode="&#x2532;" 
d="M1024 308h-452v-452h-119v475h-453v73h453v23h571v-119z" />
    <glyph glyph-name="uni2533" unicode="&#x2533;" 
d="M1024 308h-452v-452h-119v452h-453v119h1024v-119z" />
    <glyph glyph-name="SF070000" unicode="&#x2534;" 
d="M1024 331h-1024v73h476v476h73v-476h475v-73z" />
    <glyph glyph-name="uni2535" unicode="&#x2535;" 
d="M1024 331h-475v-23h-549v119h476v453h73v-476h475v-73z" />
    <glyph glyph-name="uni2536" unicode="&#x2536;" 
d="M1024 308h-548v23h-476v73h476v476h73v-453h475v-119z" />
    <glyph glyph-name="uni2537" unicode="&#x2537;" 
d="M1024 308h-1024v119h476v453h73v-453h475v-119z" />
    <glyph glyph-name="uni2538" unicode="&#x2538;" 
d="M1024 331h-1024v73h453v476h119v-476h452v-73z" />
    <glyph glyph-name="uni2539" unicode="&#x2539;" 
d="M1024 331h-571v-23h-453v119h453v453h119v-476h452v-73z" />
    <glyph glyph-name="uni253A" unicode="&#x253a;" 
d="M1024 308h-571v23h-453v73h453v476h119v-453h452v-119z" />
    <glyph glyph-name="uni253B" unicode="&#x253b;" 
d="M1024 308h-1024v119h453v453h119v-453h452v-119z" />
    <glyph glyph-name="SF050000" unicode="&#x253c;" 
d="M1024 331h-475v-475h-73v475h-476v73h476v476h73v-476h475v-73z" />
    <glyph glyph-name="uni253D" unicode="&#x253d;" 
d="M1024 331h-475v-475h-73v452h-476v119h476v453h73v-476h475v-73z" />
    <glyph glyph-name="uni253E" unicode="&#x253e;" 
d="M1024 308h-475v-452h-73v475h-476v73h476v476h73v-453h475v-119z" />
    <glyph glyph-name="uni253F" unicode="&#x253f;" 
d="M1024 308h-475v-452h-73v452h-476v119h476v453h73v-453h475v-119z" />
    <glyph glyph-name="uni2540" unicode="&#x2540;" 
d="M1024 331h-475v-475h-73v475h-476v73h453v476h119v-476h452v-73z" />
    <glyph glyph-name="uni2541" unicode="&#x2541;" 
d="M1024 331h-452v-475h-119v475h-453v73h476v476h73v-476h475v-73z" />
    <glyph glyph-name="uni2542" unicode="&#x2542;" 
d="M1024 331h-452v-475h-119v475h-453v73h453v476h119v-476h452v-73z" />
    <glyph glyph-name="uni2543" unicode="&#x2543;" 
d="M1024 331h-475v-475h-73v452h-476v119h453v453h119v-476h452v-73z" />
    <glyph glyph-name="uni2544" unicode="&#x2544;" 
d="M1024 308h-475v-452h-73v475h-476v73h453v476h119v-453h452v-119z" />
    <glyph glyph-name="uni2545" unicode="&#x2545;" 
d="M1024 331h-452v-475h-119v452h-453v119h476v453h73v-476h475v-73z" />
    <glyph glyph-name="uni2546" unicode="&#x2546;" 
d="M1024 308h-452v-452h-119v475h-453v73h476v476h73v-453h475v-119z" />
    <glyph glyph-name="uni2547" unicode="&#x2547;" 
d="M1024 308h-475v-452h-73v452h-476v119h453v453h119v-453h452v-119z" />
    <glyph glyph-name="uni2548" unicode="&#x2548;" 
d="M1024 308h-452v-452h-119v452h-453v119h476v453h73v-453h475v-119z" />
    <glyph glyph-name="uni2549" unicode="&#x2549;" 
d="M1024 331h-452v-475h-119v452h-453v119h453v453h119v-476h452v-73z" />
    <glyph glyph-name="uni254A" unicode="&#x254a;" 
d="M1024 308h-452v-452h-119v475h-453v73h453v476h119v-453h452v-119z" />
    <glyph glyph-name="uni254B" unicode="&#x254b;" 
d="M1024 308h-452v-452h-119v452h-453v119h453v453h119v-453h452v-119z" />
    <glyph glyph-name="filledbox" unicode="&#x25a0;" 
d="M895 -15h-766v766h766v-766z" />
    <glyph glyph-name="H22073" unicode="&#x25a1;" 
d="M895 -15h-766v766h766v-766zM816 64v608h-608v-608h608z" />
    <glyph glyph-name="triagup" unicode="&#x25b2;" 
d="M969 -24h-914l457 784z" />
    <glyph glyph-name="uni25B3" unicode="&#x25b3;" 
d="M969 -24h-914l457 784zM836 53l-324 554l-323 -554h647z" />
    <glyph glyph-name="uni25C6" unicode="&#x25c6;" 
d="M980 368l-468 -468l-468 468l468 468z" />
    <glyph glyph-name="uni25C7" unicode="&#x25c7;" 
d="M980 368l-468 -468l-468 468l468 468zM879 368l-367 367l-367 -367l367 -367z" />
    <glyph glyph-name="circle" unicode="&#x25cb;" 
d="M970 368q0 -190 -134 -324t-324 -134t-324 134t-134 324t134 324t324 134t324 -134t134 -324zM892 368q0 160 -110 270t-270 110q-159 0 -269 -111q-111 -110 -111 -269q0 -158 112 -268q110 -112 268 -112q159 0 269 111q111 110 111 269z" />
    <glyph glyph-name="uni25CE" unicode="&#x25ce;" 
d="M970 368q0 -190 -134 -324t-324 -134t-324 134t-134 324t134 324t324 134t324 -134t134 -324zM891 368q0 159 -111 268q-109 111 -268 111t-268 -111q-111 -109 -111 -268t111 -268q109 -111 268 -111t268 111q111 109 111 268zM819 367q0 -128 -90 -218
q-89 -89 -217 -89t-217 89q-90 90 -90 218t90 218q89 89 217 89t217 -89q90 -90 90 -218zM740 367q0 96 -66 163q-66 65 -162 65q-95 0 -162 -66q-66 -67 -66 -162q0 -94 66 -161q68 -67 162 -67q95 0 162 66q66 67 66 162z" />
    <glyph glyph-name="H18533" unicode="&#x25cf;" 
d="M970 368q0 -190 -134 -324t-324 -134t-324 134t-134 324t134 324t324 134t324 -134t134 -324z" />
    <glyph glyph-name="uni2605" unicode="&#x2605;" 
d="M994 483l-291 -225l120 -362l-311 227l-312 -227l119 362l-289 225h362l119 358l121 -358h362z" />
    <glyph glyph-name="uni2606" unicode="&#x2606;" 
d="M994 483l-291 -225l120 -362l-311 227l-312 -227l119 362l-289 225h362l119 358l121 -358h362zM768 406h-193l-63 190l-63 -190h-193l154 -120l-61 -186l163 120l163 -120l-62 186z" />
    <glyph glyph-name="female" unicode="&#x2640;" 
d="M806 236h-248v-290h-82v290h-258v83h258v64q-72 15 -118 72q-45 57 -45 130q0 86 60 145q58 60 143 60q86 0 146 -60q58 -59 58 -145q0 -73 -46 -129q-45 -57 -116 -72v-65h248v-83zM637 585q0 51 -35 86q-35 36 -86 36q-50 0 -86 -36q-35 -36 -35 -86t35 -86
q36 -37 86 -37q51 0 86 36t35 87z" />
    <glyph glyph-name="male" unicode="&#x2642;" 
d="M752 477l-40 -40l-159 165v-249q72 -16 116 -72t44 -130q0 -85 -59 -145q-58 -60 -143 -60q-84 0 -142 61q-60 60 -60 144q0 74 45 131q45 56 117 71v249l-159 -165l-40 40l240 313zM631 151q0 51 -35 87q-34 36 -85 36q-50 0 -85 -37q-35 -36 -35 -86t35 -86t85 -36
t85 36t35 86z" />
    <glyph glyph-name="uni3000" unicode="&#x3000;" 
 />
    <glyph glyph-name="uni3001" unicode="&#x3001;" 
d="M384 63l-72 -64q-81 113 -184 196l59 67q111 -92 197 -199z" />
    <glyph glyph-name="uni3002" unicode="&#x3002;" 
d="M395 139q0 -58 -41 -99t-98 -41t-98 41t-41 99q0 57 41 98t98 41t98 -41t41 -98zM333 139q0 31 -23 54q-22 22 -54 22t-54 -22q-23 -23 -23 -54q0 -32 23 -55q22 -22 54 -22t54 22q23 23 23 55z" />
    <glyph glyph-name="uni3003" unicode="&#x3003;" 
d="M776 503l-251 -330l-61 44l213 350zM544 506l-232 -320l-64 42l205 335z" />
    <glyph glyph-name="uni3005" unicode="&#x3005;" 
d="M460 737q44 -22 107 -36q-41 -36 -60 -75q-18 -31 -36 -59q25 -2 48 -2h149q65 0 132 8q-60 -139 -124 -223q-51 -75 -133 -153q44 -45 93 -92q-42 -27 -77 -77q-27 46 -82 113q-58 67 -109 107q36 29 63 73q24 -29 51 -59q87 70 182 219h-145q-55 0 -110 -7
q-68 -93 -150 -178q-30 35 -84 61q124 94 196 197q62 89 89 183z" />
    <glyph glyph-name="uni3008" unicode="&#x3008;" 
d="M918 -84l-78 -40l-223 492l223 492l78 -40l-205 -452z" />
    <glyph glyph-name="uni3009" unicode="&#x3009;" 
d="M407 368l-224 -492l-77 40l205 452l-205 452l77 40z" />
    <glyph glyph-name="uni300A" unicode="&#x300a;" 
d="M997 -84l-76 -40l-223 492l223 492l76 -40l-204 -452zM838 -84l-78 -40l-222 492l222 492l78 -40l-205 -452z" />
    <glyph glyph-name="uni300B" unicode="&#x300b;" 
d="M486 368l-222 -492l-78 40l205 452l-205 452l78 40zM326 368l-223 -492l-76 40l204 452l-204 452l76 40z" />
    <glyph glyph-name="uni300C" unicode="&#x300c;" 
d="M927 763h-232v-881h-86v972h318v-91z" />
    <glyph glyph-name="uni300D" unicode="&#x300d;" 
d="M415 -129h-318v91h232v882h86v-973z" />
    <glyph glyph-name="uni300E" unicode="&#x300e;" 
d="M927 669h-136v-787h-182v972h318v-185zM860 738v48h-184v-836h49v788h135z" />
    <glyph glyph-name="uni300F" unicode="&#x300f;" 
d="M415 -118h-318v185h136v787h182v-972zM348 -50v836h-49v-788h-135v-48h184z" />
    <glyph glyph-name="uni3010" unicode="&#x3010;" 
d="M885 -118h-235v972h235q-61 -86 -98 -233q-32 -132 -32 -253t32 -253q37 -147 98 -233z" />
    <glyph glyph-name="uni3011" unicode="&#x3011;" 
d="M374 -118h-235q61 86 98 233q32 132 32 253t-32 253q-37 147 -98 233h235v-972z" />
    <glyph glyph-name="uni3013" unicode="&#x3013;" 
d="M830 469h-635v233h635v-233zM830 29h-635v233h635v-233z" />
    <glyph glyph-name="uni3014" unicode="&#x3014;" 
d="M910 -46l-44 -78l-240 160v665l240 159l44 -78l-199 -131v-565z" />
    <glyph glyph-name="uni3015" unicode="&#x3015;" 
d="M398 36l-240 -160l-44 78l199 132v565l-199 131l44 78l240 -159v-665z" />
    <glyph glyph-name="uni3016" unicode="&#x3016;" 
d="M929 -118h-322v972h322q-61 -86 -98 -233q-32 -132 -32 -253t32 -253q37 -147 98 -233zM819 -48q-87 167 -87 416q0 250 87 417h-140v-833h140z" />
    <glyph glyph-name="uni3017" unicode="&#x3017;" 
d="M417 -118h-322q61 86 98 233q32 132 32 253t-32 253q-37 147 -98 233h322v-972zM345 -48v833h-140q87 -167 87 -417q0 -249 -87 -416h140z" />
    <glyph glyph-name="uni3041" unicode="&#x3041;" 
d="M802 187q0 -89 -85 -151q-68 -48 -168 -69l-37 76q73 17 128 46q79 42 79 98q0 88 -99 113q-56 -100 -118 -170q8 -26 23 -59l-75 -37q-6 11 -16 35q-60 -43 -109 -43q-46 0 -75 33q-28 31 -28 79q0 70 57 134q49 55 121 85q2 34 11 88q-66 0 -149 5l5 81q82 -5 122 -5
q14 0 34 1q9 60 16 93l85 -9l-14 -77q108 13 183 42l5 -81q-77 -29 -201 -43l-10 -71q44 7 83 6q5 12 19 40l78 -30l-11 -23q146 -48 146 -187zM524 302q-19 -3 -44 -9q-1 -20 -1 -27q0 -18 1 -30q22 30 44 66zM409 153q-13 57 -14 107q-89 -50 -89 -122q0 -30 19 -30
q34 0 84 45z" />
    <glyph glyph-name="uni3042" unicode="&#x3042;" 
d="M884 242q0 -111 -108 -188q-83 -61 -209 -87l-38 78q96 22 167 64q101 58 101 133q0 64 -44 109q-40 41 -105 55q-74 -134 -165 -235q14 -42 29 -75l-77 -38q-7 16 -20 48q-83 -63 -151 -63q-56 0 -90 38q-34 39 -34 97q0 93 75 174q65 69 161 107q7 75 15 136
q-23 -1 -42 -1q-55 0 -155 6l6 83q99 -6 149 -6q19 0 54 2q13 75 22 122l87 -9q-10 -52 -19 -105q158 20 248 53l5 -83q-97 -36 -267 -55q-9 -64 -15 -117q61 12 132 11q8 16 24 49l80 -32l-14 -30q91 -27 142 -86q56 -64 56 -155zM553 410q-58 -7 -97 -17q-1 -19 -1 -47
q0 -32 5 -75q37 45 93 139zM388 195q-19 84 -19 164q-141 -74 -141 -181q0 -51 36 -51q51 0 124 68z" />
    <glyph glyph-name="uni3043" unicode="&#x3043;" 
d="M795 175l-86 -21q-29 177 -138 310q25 14 75 40q118 -149 149 -329zM473 202q-50 -170 -121 -170q-65 0 -99 98q-24 72 -24 155q0 167 42 293l79 -28q-38 -114 -38 -265q0 -36 10 -89q13 -71 31 -71q9 0 46 130z" />
    <glyph glyph-name="uni3044" unicode="&#x3044;" 
d="M873 217q-30 -8 -95 -23q-37 224 -174 394q31 17 82 44q149 -188 187 -415zM451 243q-63 -211 -147 -211q-82 0 -124 127q-29 92 -29 197q0 216 52 372l86 -29q-47 -144 -47 -343q0 -114 33 -185q18 -35 29 -35q18 0 66 165z" />
    <glyph glyph-name="uni3045" unicode="&#x3045;" 
d="M676 572q-5 -48 -11 -85q-120 8 -151 11q-84 9 -147 28q13 47 20 82q93 -30 289 -36zM744 239q0 -109 -107 -196q-85 -68 -207 -104l-34 81q94 26 167 76q95 65 95 143q0 101 -104 101q-85 0 -244 -62l-30 78q177 69 274 69q86 0 138 -51q52 -50 52 -135z" />
    <glyph glyph-name="uni3046" unicode="&#x3046;" 
d="M719 747q-6 -49 -13 -91q-141 9 -190 14q-109 12 -185 34q7 30 22 87q115 -36 366 -44zM808 320q0 -137 -136 -248q-110 -89 -263 -133l-38 87q123 34 219 102q125 89 125 192q0 70 -39 107t-109 37q-116 0 -318 -79l-33 84q218 85 351 85q110 0 175 -63q66 -63 66 -171z
" />
    <glyph glyph-name="uni3047" unicode="&#x3047;" 
d="M659 509q-175 1 -291 25l18 79q109 -22 273 -23v-81zM815 -12q-65 -12 -167 -12q-137 0 -137 94q0 15 1 46q1 30 1 45q0 16 -15 16q-56 0 -126 -68q-51 -56 -103 -113l-60 59q136 148 336 325q-144 -34 -261 -41l-5 81q187 10 358 67l64 -78q-94 -71 -180 -152
q77 0 77 -100q0 -14 -2 -41q-1 -27 -1 -38q0 -21 53 -21q60 0 164 19z" />
    <glyph glyph-name="uni3048" unicode="&#x3048;" 
d="M695 675q-220 1 -361 30l19 85q133 -27 342 -28v-87zM898 -10q-94 -14 -208 -14q-171 0 -171 113q0 20 1 60q2 40 2 59q0 31 -29 31q-73 0 -167 -87q-15 -14 -133 -146l-67 63q191 208 463 445q-213 -53 -369 -62l-6 87q237 13 459 86l73 -89q-131 -98 -251 -214
q17 4 28 4q90 0 90 -100q0 -22 -1 -64q-2 -42 -2 -62q0 -37 80 -37q84 0 205 22z" />
    <glyph glyph-name="uni3049" unicode="&#x3049;" 
d="M806 425l-57 -61q-60 65 -143 127l57 64q76 -57 143 -130zM773 154q0 -67 -50 -112q-50 -46 -118 -46q-43 0 -106 31l36 76q48 -24 70 -24q32 0 59 22q26 21 26 53q0 52 -45 80q-37 22 -92 22t-107 -15v-110q0 -147 -88 -147q-41 0 -90 54q-50 55 -50 97q0 101 144 163
v96q-31 -3 -50 -3q-36 0 -91 6l3 84q57 -7 88 -7q22 0 50 4v126h84v-113q71 14 123 38v-91q-53 -19 -123 -32v-80q59 14 107 14q91 0 153 -47q67 -51 67 -139zM362 115v88q-60 -38 -60 -68q0 -10 25 -39q24 -29 31 -29q4 4 4 48z" />
    <glyph glyph-name="uni304A" unicode="&#x304a;" 
d="M887 554l-63 -66q-73 81 -173 154l62 70q93 -70 174 -158zM848 198q0 -84 -64 -141q-63 -57 -147 -57q-54 0 -128 36l39 82q57 -28 89 -28q46 0 83 31t37 77q0 72 -62 111q-52 33 -128 33q-75 0 -149 -23v-151q0 -184 -106 -184q-52 0 -113 68q-62 67 -62 120
q0 130 191 209v142q-39 -4 -77 -4q-46 0 -110 6l4 91q64 -6 106 -6q33 0 77 5v164h90v-151q98 19 162 47q0 -9 1 -35v-34v-29q-68 -25 -163 -41v-124q83 22 149 22q115 0 194 -59q87 -65 87 -177zM328 168v112q-100 -56 -100 -108q0 -15 36 -56q35 -41 48 -41q16 0 16 93z
" />
    <glyph glyph-name="uni304B" unicode="&#x304b;" 
d="M924 185l-86 -28q-26 101 -80 217q-53 116 -115 199l74 54q143 -194 207 -442zM631 349q0 -138 -51 -237q-65 -126 -189 -126q-5 0 -42 1l-24 99q32 -9 66 -9q79 0 119 103q30 74 30 169q0 71 -12 100q-18 50 -76 50q-23 0 -65 -4q-75 -325 -214 -513l-73 54
q120 162 191 446q-78 -15 -159 -37v95q90 24 180 38q18 91 28 193l90 -8q-9 -96 -23 -175q29 2 45 2q179 0 179 -241z" />
    <glyph glyph-name="uni304C" unicode="&#x304c;" 
d="M992 634l-64 -30q-25 67 -59 118l62 32q32 -52 61 -120zM887 594l-65 -30q-24 67 -58 118l61 32q32 -52 62 -120zM924 185l-86 -28q-26 101 -80 217q-53 116 -115 199l74 54q143 -194 207 -442zM631 349q0 -138 -51 -237q-65 -126 -189 -126q-5 0 -42 1l-24 99
q32 -9 66 -9q79 0 119 103q30 74 30 169q0 71 -12 100q-18 50 -76 50q-23 0 -65 -4q-75 -325 -214 -513l-73 54q120 162 191 446q-78 -15 -159 -37v95q90 24 180 38q18 91 28 193l90 -8q-9 -96 -23 -175q29 2 45 2q179 0 179 -241z" />
    <glyph glyph-name="uni304D" unicode="&#x304d;" 
d="M826 456q-64 -22 -149 -42q48 -76 140 -192l-58 -72q-203 93 -346 93q-125 0 -125 -66q0 -65 105 -95q69 -18 157 -18q103 0 185 13v-94q-63 -10 -185 -10q-132 0 -224 38q-128 53 -128 166q0 82 69 123q57 34 146 34q95 0 243 -50q-40 56 -72 112q-102 -17 -183 -17
q-64 0 -188 21v92q124 -22 188 -22q62 0 137 11q-24 47 -41 92q-61 -6 -99 -6q-60 0 -185 15v91q122 -15 185 -15q21 0 69 4q-17 61 -25 133h93q7 -69 22 -123q125 20 208 53v-97q-76 -27 -177 -43q21 -52 41 -89q109 22 197 58v-98z" />
    <glyph glyph-name="uni304E" unicode="&#x304e;" 
d="M1006 743l-64 -31q-23 65 -59 119l62 33q26 -43 61 -121zM900 703l-63 -31q-24 65 -60 119l63 33q25 -43 60 -121zM826 456q-64 -22 -149 -42q48 -76 140 -192l-58 -72q-203 93 -346 93q-125 0 -125 -66q0 -65 105 -95q69 -18 157 -18q103 0 185 13v-94q-63 -10 -185 -10
q-132 0 -224 38q-128 53 -128 166q0 82 69 123q57 34 146 34q95 0 243 -50q-40 56 -72 112q-102 -17 -183 -17q-64 0 -188 21v92q124 -22 188 -22q62 0 137 11q-24 47 -41 92q-61 -6 -99 -6q-60 0 -185 15v91q122 -15 185 -15q21 0 69 4q-17 61 -25 133h93q7 -69 22 -123
q125 20 208 53v-97q-76 -27 -177 -43q21 -52 41 -89q109 22 197 58v-98z" />
    <glyph glyph-name="uni304F" unicode="&#x304f;" 
d="M731 -16l-94 -44q-80 161 -278 360q-35 36 -44 48q-22 29 -22 59q0 33 37 69q21 18 63 55q128 113 222 271l96 -39q-108 -161 -293 -334q-25 -22 -25 -26t31 -34q207 -197 307 -385z" />
    <glyph glyph-name="uni3050" unicode="&#x3050;" 
d="M955 584l-64 -31q-25 68 -58 119l61 32q32 -52 61 -120zM850 544l-65 -31q-24 68 -58 119l61 32q32 -52 62 -120zM731 -16l-94 -44q-80 161 -278 360q-35 36 -44 48q-22 29 -22 59q0 33 37 69q21 18 63 55q128 113 222 271l96 -39q-108 -161 -293 -334q-25 -22 -25 -26
t31 -34q207 -197 307 -385z" />
    <glyph glyph-name="uni3051" unicode="&#x3051;" 
d="M858 533q-41 -18 -109 -31q0 -162 -11 -231q-17 -113 -74 -182q-66 -79 -200 -121l-50 83q141 41 195 120q50 75 49 225l-1 92q-60 -7 -105 -7q-56 0 -191 14l3 90q134 -13 188 -13q47 0 104 7q-3 81 -12 206h94q3 -56 8 -192q67 13 112 32v-92zM304 749
q-47 -177 -47 -384q0 -165 31 -282l-90 -19q-32 124 -32 301q0 220 51 414z" />
    <glyph glyph-name="uni3052" unicode="&#x3052;" 
d="M1018 742l-65 -31q-23 65 -59 119l62 33q30 -50 62 -121zM912 702l-64 -31q-24 65 -60 119l63 33q30 -49 61 -121zM858 533q-41 -18 -109 -31q0 -162 -11 -231q-17 -113 -74 -182q-66 -79 -200 -121l-50 83q141 41 195 120q50 75 49 225l-1 92q-60 -7 -105 -7
q-56 0 -191 14l3 90q134 -13 188 -13q47 0 104 7q-3 81 -12 206h94q3 -56 8 -192q67 13 112 32v-92zM304 749q-47 -177 -47 -384q0 -165 31 -282l-90 -19q-32 124 -32 301q0 220 51 414z" />
    <glyph glyph-name="uni3053" unicode="&#x3053;" 
d="M722 612q-98 -24 -196 -24q-136 0 -252 27v95q125 -29 252 -29q76 0 196 25v-94zM814 46q-92 -27 -258 -27q-346 0 -346 189q0 56 50 123l87 -36q-42 -55 -42 -87q0 -57 104 -81q61 -13 147 -13q152 0 258 35v-103z" />
    <glyph glyph-name="uni3054" unicode="&#x3054;" 
d="M979 728l-65 -30q-23 64 -59 119l63 32q29 -49 61 -121zM873 689l-64 -31q-24 64 -59 119l62 32q30 -49 61 -120zM722 612q-98 -24 -196 -24q-136 0 -252 27v95q125 -29 252 -29q76 0 196 25v-94zM814 46q-92 -27 -258 -27q-346 0 -346 189q0 56 50 123l87 -36
q-42 -55 -42 -87q0 -57 104 -81q61 -13 147 -13q152 0 258 35v-103z" />
    <glyph glyph-name="uni3055" unicode="&#x3055;" 
d="M826 627q-60 -41 -194 -68q44 -87 190 -268l-62 -81q-148 87 -283 87q-57 0 -99 -18q-57 -25 -57 -74q0 -74 117 -104q73 -19 176 -19q54 0 111 10l-3 -95q-64 -10 -108 -10q-151 0 -247 37q-141 55 -141 181q0 91 83 143q71 44 168 44q74 0 175 -32q-71 93 -113 184
q-85 -11 -161 -11q-64 0 -180 14v90q119 -13 180 -13q57 0 126 8q-24 72 -34 159l93 -4q10 -79 32 -140q151 27 208 69z" />
    <glyph glyph-name="uni3056" unicode="&#x3056;" 
d="M1018 751l-65 -31q-23 65 -59 119l62 33q30 -49 62 -121zM912 711l-64 -31q-24 65 -60 119l63 33q30 -49 61 -121zM826 627q-60 -41 -194 -68q44 -87 190 -268l-62 -81q-148 87 -283 87q-57 0 -99 -18q-57 -25 -57 -74q0 -74 117 -104q73 -19 176 -19q54 0 111 10l-3 -95
q-64 -10 -108 -10q-151 0 -247 37q-141 55 -141 181q0 91 83 143q71 44 168 44q74 0 175 -32q-71 93 -113 184q-85 -11 -161 -11q-64 0 -180 14v90q119 -13 180 -13q57 0 126 8q-24 72 -34 159l93 -4q10 -79 32 -140q151 27 208 69z" />
    <glyph glyph-name="uni3057" unicode="&#x3057;" 
d="M798 250q-152 -255 -341 -255q-231 0 -231 311q0 56 7 235q3 81 14 243l99 -15q-6 -54 -17 -234q-13 -189 -13 -229q0 -220 141 -220q134 0 263 217z" />
    <glyph glyph-name="uni3058" unicode="&#x3058;" 
d="M748 627l-65 -31q-24 65 -59 119l62 32q32 -52 62 -120zM642 587l-64 -31q-24 65 -60 119l63 33q29 -49 61 -121zM798 250q-152 -255 -341 -255q-231 0 -231 311q0 56 7 235q3 81 14 243l99 -15q-6 -54 -17 -234q-13 -189 -13 -229q0 -220 141 -220q134 0 263 217z" />
    <glyph glyph-name="uni3059" unicode="&#x3059;" 
d="M904 568h-277l-1 -202q0 -2 5 -30q5 -27 5 -42q0 -156 -82 -235q-68 -66 -231 -109l-37 85q93 22 143 46q78 38 106 101q-40 -23 -78 -23q-70 0 -111 45t-41 115q0 74 42 123q42 48 115 48q36 0 77 -28v105q-174 -4 -411 -21l-8 91q118 6 420 17v139l88 -4v-68
q-1 -48 -1 -66l277 1v-88zM538 324q0 34 -19 56q-18 23 -51 23q-76 0 -76 -84q0 -32 20 -53q20 -23 52 -23q74 0 74 81z" />
    <glyph glyph-name="uni305A" unicode="&#x305a;" 
d="M986 749l-64 -31q-24 65 -60 119l63 33q29 -49 61 -121zM881 709l-65 -31q-23 65 -59 119l62 33q30 -49 62 -121zM904 568h-277l-1 -202q0 -2 5 -30q5 -27 5 -42q0 -156 -82 -235q-68 -66 -231 -109l-37 85q93 22 143 46q78 38 106 101q-40 -23 -78 -23q-70 0 -111 45
t-41 115q0 74 42 123q42 48 115 48q36 0 77 -28v105q-174 -4 -411 -21l-8 91q118 6 420 17v139l88 -4v-68q-1 -48 -1 -66l277 1v-88zM538 324q0 34 -19 56q-18 23 -51 23q-76 0 -76 -84q0 -32 20 -53q20 -23 52 -23q74 0 74 81z" />
    <glyph glyph-name="uni305B" unicode="&#x305b;" 
d="M905 551l-6 -91q-78 0 -164 -4q-8 -102 -26 -153q-33 -91 -107 -91q-45 0 -109 25v94q72 -28 109 -28q36 0 41 148q-134 -9 -264 -27q0 -4 -1 -11v-11q0 -197 44 -255q38 -50 152 -50q86 0 203 15l-5 -98q-143 -8 -198 -8q-184 0 -245 119q-42 82 -41 286
q-85 -13 -157 -30l-12 92q65 15 171 31q5 172 5 204l91 -7q0 -20 -5 -183q122 15 264 24q4 159 4 219l91 -12q0 -163 -1 -202q95 4 166 4z" />
    <glyph glyph-name="uni305C" unicode="&#x305c;" 
d="M1014 712l-65 -31q-23 65 -59 119l62 33q30 -49 62 -121zM908 672l-64 -31q-24 65 -60 119l63 33q30 -49 61 -121zM905 551l-6 -91q-78 0 -164 -4q-8 -102 -26 -153q-33 -91 -107 -91q-45 0 -109 25v94q72 -28 109 -28q36 0 41 148q-134 -9 -264 -27q0 -4 -1 -11v-11
q0 -197 44 -255q38 -50 152 -50q86 0 203 15l-5 -98q-143 -8 -198 -8q-184 0 -245 119q-42 82 -41 286q-85 -13 -157 -30l-12 92q65 15 171 31q5 172 5 204l91 -7q0 -20 -5 -183q122 15 264 24q4 159 4 219l91 -12q0 -163 -1 -202q95 4 166 4z" />
    <glyph glyph-name="uni305D" unicode="&#x305d;" 
d="M863 407q-131 0 -240 -41q-149 -54 -149 -162q0 -126 292 -132l-15 -91q-368 7 -368 223q0 96 89 169q-111 -20 -300 -65l-11 94q228 147 397 274q-144 -20 -258 -20l-3 91q233 0 373 46l68 -89q-132 -102 -359 -260q294 56 484 56v-93z" />
    <glyph glyph-name="uni305E" unicode="&#x305e;" 
d="M976 630l-65 -31q-24 68 -58 119l61 32q32 -52 62 -120zM870 590l-64 -31q-25 68 -58 119l61 32q32 -52 61 -120zM863 407q-131 0 -240 -41q-149 -54 -149 -162q0 -126 292 -132l-15 -91q-368 7 -368 223q0 96 89 169q-111 -20 -300 -65l-11 94q228 147 397 274
q-144 -20 -258 -20l-3 91q233 0 373 46l68 -89q-132 -102 -359 -260q294 56 484 56v-93z" />
    <glyph glyph-name="uni305F" unicode="&#x305f;" 
d="M851 551l-4 -95q-216 0 -352 -46l-7 97q130 44 363 44zM892 32q-65 -15 -159 -15q-110 0 -183 23q-114 36 -114 122q0 33 20 85l90 -22q-15 -38 -15 -63q0 -11 34 -26q53 -24 168 -24q83 0 151 15zM555 595q-67 -25 -161 -42q-61 -329 -177 -566l-85 33q107 218 167 520
q-79 -8 -161 -8v91q86 0 178 10q11 61 20 153l90 -9l-15 -130q75 14 135 38z" />
    <glyph glyph-name="uni3060" unicode="&#x3060;" 
d="M953 680l-63 -30q-24 64 -60 118l63 33q26 -43 60 -121zM848 641l-64 -31q-23 66 -59 119l62 32q28 -45 61 -120zM851 551l-4 -95q-216 0 -352 -46l-7 97q130 44 363 44zM892 32q-65 -15 -159 -15q-110 0 -183 23q-114 36 -114 122q0 33 20 85l90 -22q-15 -38 -15 -63
q0 -11 34 -26q53 -24 168 -24q83 0 151 15zM555 595q-67 -25 -161 -42q-61 -329 -177 -566l-85 33q107 218 167 520q-79 -8 -161 -8v91q86 0 178 10q11 61 20 153l90 -9l-15 -130q75 14 135 38z" />
    <glyph glyph-name="uni3061" unicode="&#x3061;" 
d="M841 244q0 -155 -187 -219q-123 -43 -315 -43l-32 91q158 0 262 24q181 42 181 147q0 53 -35 83q-35 29 -89 29q-131 0 -286 -161l-80 53q52 138 82 305q-63 -4 -159 -4v90q85 0 172 8q9 62 11 129l90 -6q-2 -52 -11 -114q135 18 255 63v-95q-130 -46 -269 -62
q-19 -107 -46 -212q134 96 241 96q91 0 152 -54q63 -58 63 -148z" />
    <glyph glyph-name="uni3062" unicode="&#x3062;" 
d="M986 708l-64 -31q-24 65 -60 119l63 32q31 -52 61 -120zM881 668l-65 -31q-23 65 -59 119l62 33q30 -49 62 -121zM841 244q0 -155 -187 -219q-123 -43 -315 -43l-32 91q158 0 262 24q181 42 181 147q0 53 -35 83q-35 29 -89 29q-131 0 -286 -161l-80 53q52 138 82 305
q-63 -4 -159 -4v90q85 0 172 8q9 62 11 129l90 -6q-2 -52 -11 -114q135 18 255 63v-95q-130 -46 -269 -62q-19 -107 -46 -212q134 96 241 96q91 0 152 -54q63 -58 63 -148z" />
    <glyph glyph-name="uni3063" unicode="&#x3063;" 
d="M806 309q0 -121 -119 -197q-88 -57 -228 -82l-49 79q115 20 192 57q118 58 118 143q0 55 -45 88q-40 29 -97 29q-58 0 -171 -38q-91 -29 -167 -65l-22 83q228 106 360 106q95 0 159 -53q69 -57 69 -150z" />
    <glyph glyph-name="uni3064" unicode="&#x3064;" 
d="M889 386q0 -154 -152 -251q-111 -72 -292 -105l-53 86q153 27 252 78q150 76 150 192q0 77 -62 124q-55 42 -135 42q-76 0 -221 -48q-116 -38 -216 -85l-25 92q111 53 226 89q146 47 236 47q121 0 204 -69q88 -73 88 -192z" />
    <glyph glyph-name="uni3065" unicode="&#x3065;" 
d="M992 720l-64 -30q-25 67 -59 118l62 32q32 -52 61 -120zM887 680l-65 -30q-24 67 -58 118l61 32q32 -52 62 -120zM889 386q0 -154 -152 -251q-111 -72 -292 -105l-53 86q153 27 252 78q150 76 150 192q0 77 -62 124q-55 42 -135 42q-76 0 -221 -48q-116 -38 -216 -85
l-25 92q111 53 226 89q146 47 236 47q121 0 204 -69q88 -73 88 -192z" />
    <glyph glyph-name="uni3066" unicode="&#x3066;" 
d="M874 600q-145 0 -266 -69q-142 -83 -142 -217q0 -110 92 -174q76 -52 195 -64l-10 -97q-156 15 -258 94q-114 91 -114 241q0 172 182 278q-182 -15 -401 -41l-2 101q477 48 724 53v-105z" />
    <glyph glyph-name="uni3067" unicode="&#x3067;" 
d="M949 433l-64 -31q-24 64 -60 119l63 31q32 -52 61 -119zM844 393l-65 -31q-23 64 -59 119l62 32q30 -49 62 -120zM874 600q-145 0 -266 -69q-142 -83 -142 -217q0 -110 92 -174q76 -52 195 -64l-10 -97q-156 15 -258 94q-114 91 -114 241q0 172 182 278
q-182 -15 -401 -41l-2 101q476 48 724 53v-105z" />
    <glyph glyph-name="uni3068" unicode="&#x3068;" 
d="M814 441q-210 -50 -297 -81q-213 -77 -213 -164q0 -100 221 -100q159 0 260 15v-96q-94 -15 -260 -15q-127 0 -206 36q-109 49 -109 160q0 142 242 238q-38 66 -38 284q0 20 1 66l94 -1q0 -143 1 -166q6 -121 32 -153q61 20 232 60z" />
    <glyph glyph-name="uni3069" unicode="&#x3069;" 
d="M951 684l-63 -30q-24 64 -60 118l63 32q28 -45 60 -120zM846 644l-64 -30q-23 64 -59 119l62 32q26 -43 61 -121zM814 441q-210 -50 -297 -81q-213 -77 -213 -164q0 -100 221 -100q159 0 260 15v-96q-94 -15 -260 -15q-127 0 -206 36q-109 49 -109 160q0 142 242 238
q-38 66 -38 284q0 20 1 66l94 -1q0 -143 1 -166q6 -121 32 -153q61 20 232 60z" />
    <glyph glyph-name="uni306A" unicode="&#x306a;" 
d="M899 544l-47 -81q-117 50 -284 59l32 87q66 -3 153 -22q92 -18 146 -43zM540 713l-1 -97q-55 -27 -148 -43q-96 -283 -194 -409l-72 57q82 104 166 338q-64 -6 -127 -6v91q74 0 160 12q24 76 41 149l89 -20q-12 -50 -30 -112q64 14 116 40zM845 57l-66 -68
q-61 63 -121 100q-18 -58 -66 -91q-47 -32 -110 -32q-62 0 -113 36q-57 40 -57 101q0 67 52 106q46 34 116 34q45 0 90 -12q-20 107 -20 132q0 35 27 95l93 -21q-29 -45 -29 -74q0 -33 11 -86q14 -63 16 -85q89 -47 177 -135zM575 132q-52 21 -95 21q-77 0 -77 -50
q0 -21 31 -35q25 -11 48 -11q79 0 93 75z" />
    <glyph glyph-name="uni306B" unicode="&#x306b;" 
d="M787 589q-134 -36 -360 -36v95q215 0 360 38v-97zM857 183l-2 -99q-70 -21 -162 -21q-115 0 -192 26q-115 40 -115 133q0 42 24 108l93 -15q-23 -64 -23 -93q0 -36 89 -53q59 -11 124 -11q85 0 164 25zM308 709q-51 -228 -51 -454q0 -163 21 -247l-90 -11q-21 89 -21 258
q0 244 53 478z" />
    <glyph glyph-name="uni306C" unicode="&#x306c;" 
d="M905 58l-72 -48q-22 32 -50 66q-54 -55 -129 -55q-63 0 -106 31q-48 33 -48 95q0 55 41 88q37 31 94 31q62 0 128 -48q9 37 9 65q0 101 -47 170q-54 79 -151 79q-10 0 -31 -2q-60 -200 -127 -324q28 -49 57 -80l-63 -60q-23 24 -46 58q-68 -86 -136 -86q-58 0 -87 51
q-22 41 -22 104q0 141 103 260q-32 120 -36 225l86 13q3 -85 23 -170q82 61 177 85q28 97 43 168l85 -18q-15 -71 -33 -137q138 0 218 -101q74 -94 74 -235q0 -69 -25 -130q33 -38 71 -95zM723 139q-48 39 -88 39q-48 0 -48 -31q0 -39 67 -39q39 0 69 31zM441 504
q-69 -28 -120 -75q21 -68 46 -124q40 90 74 199zM316 205q-32 66 -62 147q-48 -78 -48 -159q0 -68 22 -68q39 0 88 80z" />
    <glyph glyph-name="uni306D" unicode="&#x306d;" 
d="M916 46l-77 -49q-26 41 -56 74q-59 -62 -152 -62q-67 0 -112 26q-55 32 -55 94q0 63 48 96q42 29 106 29q69 0 141 -44q11 43 11 95q0 97 -8 139q-19 93 -79 93q-112 0 -333 -230q-4 -123 -4 -339h-85q0 138 2 238l-108 -121l-47 75q57 83 162 249q1 36 5 102
q-66 -10 -135 -14l-5 89q94 6 148 15q8 90 21 190l84 -12q-13 -83 -19 -154l31 13l51 -61q-26 -42 -75 -131q184 181 307 181q110 0 151 -116q25 -71 25 -206q0 -84 -26 -153q45 -44 83 -106zM717 130q-51 35 -99 35q-65 0 -65 -36q0 -31 78 -31q52 0 86 32z" />
    <glyph glyph-name="uni306E" unicode="&#x306e;" 
d="M882 357q0 -151 -103 -242q-91 -81 -248 -105l-36 88q127 17 202 72q94 69 94 187q0 119 -74 195q-73 77 -191 77q-127 0 -213 -106q-80 -100 -80 -230q0 -45 18 -87q22 -53 61 -53q30 0 85 122q62 134 88 322l90 -13q-20 -134 -58 -251q-51 -153 -119 -223
q-46 -47 -86 -47q-81 0 -129 78q-41 66 -41 152q0 168 107 294q112 133 277 133q156 0 256 -103q100 -104 100 -260z" />
    <glyph glyph-name="uni306F" unicode="&#x306f;" 
d="M867 80l-70 -56q-41 52 -78 84q-55 -91 -175 -91q-74 0 -125 30q-62 36 -62 106q0 129 167 129q66 0 131 -28q-7 76 -15 247q-84 -9 -142 -9q-54 0 -139 8l1 89q87 -6 138 -6q55 0 141 9v165h91v-153q78 12 122 30v-91q-39 -16 -122 -30q1 -49 9 -156q9 -102 9 -156
q59 -44 119 -121zM301 723q-53 -202 -53 -472q0 -142 25 -238l-87 -17q-29 112 -29 255q0 274 59 501zM644 159q-60 32 -120 32q-77 0 -77 -38q0 -46 97 -46q72 0 100 52z" />
    <glyph glyph-name="uni3070" unicode="&#x3070;" 
d="M1009 742l-65 -31q-24 68 -58 119l61 32q32 -53 62 -120zM903 702l-64 -31q-25 68 -59 119l62 33q29 -49 61 -121zM867 80l-70 -56q-41 52 -78 84q-55 -91 -175 -91q-74 0 -125 30q-62 36 -62 106q0 129 167 129q66 0 131 -28q-7 76 -15 247q-84 -9 -142 -9q-54 0 -139 8
l1 89q87 -6 138 -6q55 0 141 9v165h91v-153q78 12 122 30v-91q-39 -16 -122 -30q1 -49 9 -156q9 -102 9 -156q59 -44 119 -121zM301 723q-53 -202 -53 -472q0 -142 25 -238l-87 -17q-29 112 -29 255q0 274 59 501zM644 159q-60 32 -120 32q-77 0 -77 -38q0 -46 97 -46
q72 0 100 52z" />
    <glyph glyph-name="uni3071" unicode="&#x3071;" 
d="M994 762q0 -42 -29 -71q-30 -30 -72 -30t-72 30q-29 29 -29 71t29 72q30 30 72 30t72 -30q29 -30 29 -72zM867 80l-70 -56q-41 52 -78 84q-55 -91 -175 -91q-74 0 -125 30q-62 36 -62 106q0 129 167 129q66 0 131 -28q-7 76 -15 247q-84 -9 -142 -9q-54 0 -139 8l1 89
q87 -6 138 -6q55 0 141 9v165h91v-153q78 12 122 30v-91q-39 -16 -122 -30q1 -49 9 -156q9 -102 9 -156q59 -44 119 -121zM301 723q-53 -202 -53 -472q0 -142 25 -238l-87 -17q-29 112 -29 255q0 274 59 501zM943 762q0 22 -14 36q-15 14 -36 14t-35 -14q-15 -15 -15 -36
q0 -19 15 -35q15 -15 35 -15t35 14q15 16 15 36zM644 159q-60 32 -120 32q-77 0 -77 -38q0 -46 97 -46q72 0 100 52z" />
    <glyph glyph-name="uni3072" unicode="&#x3072;" 
d="M901 301l-77 -61q-53 66 -99 176q-7 -200 -107 -317q-92 -110 -214 -110q-112 0 -178 82q-59 76 -59 192q0 159 150 366q-113 -31 -175 -35l-19 88q158 12 298 76l60 -71q-90 -90 -150 -194q-73 -127 -73 -230q0 -76 35 -125q39 -58 111 -58q81 0 149 84q82 102 82 290
q0 55 -11 263l96 10q19 -103 68 -222q54 -126 113 -204z" />
    <glyph glyph-name="uni3073" unicode="&#x3073;" 
d="M992 725l-64 -30q-25 67 -59 118l62 32q32 -52 61 -120zM887 685l-65 -30q-24 67 -58 119l61 31q32 -52 62 -120zM901 301l-77 -61q-53 66 -99 176q-7 -200 -107 -317q-92 -110 -214 -110q-112 0 -178 82q-59 76 -59 192q0 159 150 366q-113 -31 -175 -35l-19 88
q158 12 298 76l60 -71q-90 -90 -150 -194q-73 -127 -73 -230q0 -76 35 -125q39 -58 111 -58q81 0 149 84q82 102 82 290q0 55 -11 263l96 10q19 -103 68 -222q54 -126 113 -204z" />
    <glyph glyph-name="uni3074" unicode="&#x3074;" 
d="M980 750q0 -42 -30 -72q-29 -29 -71 -29t-72 29q-30 30 -30 72t30 72q30 29 72 29t71 -29q30 -30 30 -72zM901 301l-77 -61q-53 66 -99 176q-7 -200 -107 -317q-92 -110 -214 -110q-112 0 -178 82q-59 76 -59 192q0 159 150 366q-113 -31 -175 -35l-19 88q158 12 298 76
l60 -71q-90 -90 -150 -194q-73 -127 -73 -230q0 -76 35 -125q39 -58 111 -58q81 0 149 84q82 102 82 290q0 55 -11 263l96 10q19 -103 68 -222q54 -126 113 -204zM929 750q0 21 -15 36q-14 14 -35 14t-35 -14q-16 -16 -16 -36t16 -35q15 -15 35 -15t34 14q16 15 16 36z" />
    <glyph glyph-name="uni3075" unicode="&#x3075;" 
d="M656 653l-63 -67q-105 79 -261 116l50 77q157 -37 274 -126zM938 116l-84 -35q-18 65 -61 139q-44 73 -92 120l76 52q115 -115 161 -276zM664 185q0 -82 -46 -139q-48 -60 -128 -60q-86 0 -183 106l51 77q85 -92 132 -92q40 0 63 36q19 30 19 72q0 75 -80 163
q-65 70 -148 116l59 69q105 -59 176 -143q85 -103 85 -205zM411 251q-53 -29 -145 -101q-97 -75 -132 -115l-48 78q37 42 129 114q89 68 143 99z" />
    <glyph glyph-name="uni3076" unicode="&#x3076;" 
d="M951 593l-64 -30q-25 67 -59 118l62 32q32 -52 61 -120zM846 553l-65 -30q-24 67 -58 118l61 32q32 -52 62 -120zM656 653l-63 -67q-105 79 -261 116l50 77q157 -37 274 -126zM938 116l-84 -35q-18 65 -61 139q-44 73 -92 120l76 52q115 -115 161 -276zM664 185
q0 -82 -46 -139q-48 -60 -128 -60q-86 0 -183 106l51 77q85 -92 132 -92q40 0 63 36q19 30 19 72q0 75 -80 163q-65 70 -148 116l59 69q105 -59 176 -143q85 -103 85 -205zM411 251q-53 -29 -145 -101q-97 -75 -132 -115l-48 78q37 42 129 114q89 68 143 99z" />
    <glyph glyph-name="uni3077" unicode="&#x3077;" 
d="M944 616q0 -42 -30 -72q-29 -30 -71 -30t-72 30t-30 72t30 71q30 30 72 30t71 -30q30 -29 30 -71zM656 653l-63 -67q-105 79 -261 116l50 77q157 -37 274 -126zM938 116l-84 -35q-18 65 -61 139q-44 73 -92 120l76 52q115 -115 161 -276zM664 185q0 -82 -46 -139
q-48 -60 -128 -60q-86 0 -183 106l51 77q85 -92 132 -92q40 0 63 36q19 30 19 72q0 75 -80 163q-65 70 -148 116l59 69q105 -59 176 -143q85 -103 85 -205zM411 251q-53 -29 -145 -101q-97 -75 -132 -115l-48 78q37 42 129 114q89 68 143 99zM893 616q0 21 -14 36
q-15 14 -36 14t-36 -15q-14 -15 -14 -35t15 -35t35 -15t36 15q14 14 14 35z" />
    <glyph glyph-name="uni3078" unicode="&#x3078;" 
d="M914 170l-48 -85q-75 51 -197 187q-110 121 -173 215q-38 55 -62 55q-31 0 -85 -57l-179 -200l-60 69l179 201q71 81 145 81q76 0 143 -99q54 -81 158 -197q115 -127 179 -170z" />
    <glyph glyph-name="uni3079" unicode="&#x3079;" 
d="M889 595l-65 -30q-23 64 -59 118l62 32q32 -52 62 -120zM783 555l-64 -30q-24 64 -60 118l63 33q30 -49 61 -121zM914 170l-48 -85q-75 51 -197 187q-110 121 -173 215q-38 55 -62 55q-31 0 -85 -57l-179 -200l-60 69l179 201q71 81 145 81q76 0 143 -99q54 -81 158 -197
q115 -127 179 -170z" />
    <glyph glyph-name="uni307A" unicode="&#x307a;" 
d="M869 627q0 -42 -29 -72q-30 -29 -72 -29t-72 29q-29 30 -29 72t29 72q30 29 72 29t72 -29q29 -30 29 -72zM914 170l-48 -85q-75 51 -197 187q-110 121 -173 215q-38 55 -62 55q-31 0 -85 -57l-179 -200l-60 69l179 201q71 81 145 81q76 0 143 -99q54 -81 158 -197
q115 -127 179 -170zM818 627q0 22 -14 36t-36 14q-20 0 -35 -14q-15 -15 -15 -36q0 -19 15 -35q16 -15 35 -15q20 0 35 14q15 16 15 36z" />
    <glyph glyph-name="uni307B" unicode="&#x307b;" 
d="M880 87l-65 -64q-57 58 -106 91q-43 -104 -168 -104q-71 0 -121 31q-58 37 -58 105q0 65 52 97q42 27 111 27q57 0 112 -19q-4 47 -12 160q-133 -19 -266 -19v90q120 0 262 20v140q-117 -17 -223 -17v90q78 0 199 17q135 18 190 42v-92q-34 -14 -95 -26l19 -7v-131
q56 11 108 30v-92q-50 -18 -104 -30q1 -14 8 -108q5 -66 5 -109q75 -44 152 -122zM292 725q-58 -216 -58 -469q0 -135 29 -246l-90 -15q-29 112 -29 261q0 277 60 497zM629 157q-56 23 -104 23q-71 0 -71 -34q0 -25 32 -37q24 -9 55 -9q69 0 88 57z" />
    <glyph glyph-name="uni307C" unicode="&#x307c;" 
d="M1015 615l-65 -31q-24 68 -58 119l61 32q32 -53 62 -120zM909 575l-64 -31q-25 68 -59 119l62 32q32 -53 61 -120zM880 87l-65 -64q-57 58 -106 91q-43 -104 -168 -104q-71 0 -121 31q-58 37 -58 105q0 65 52 97q42 27 111 27q57 0 112 -19q-4 47 -12 160
q-133 -19 -266 -19v90q120 0 262 20v140q-117 -17 -223 -17v90q78 0 199 17q135 18 190 42v-92q-34 -14 -95 -26l19 -7v-131q56 11 108 30v-92q-50 -18 -104 -30q1 -14 8 -108q5 -66 5 -109q75 -44 152 -122zM292 725q-58 -216 -58 -469q0 -135 29 -246l-90 -15
q-29 112 -29 261q0 277 60 497zM629 157q-56 23 -104 23q-71 0 -71 -34q0 -25 32 -37q24 -9 55 -9q69 0 88 57z" />
    <glyph glyph-name="uni307D" unicode="&#x307d;" 
d="M1011 668q0 -42 -30 -72q-30 -29 -72 -29t-71 29q-30 30 -30 72t30 72q29 29 71 29t72 -29q30 -30 30 -72zM880 87l-65 -64q-57 58 -106 91q-43 -104 -168 -104q-71 0 -121 31q-58 37 -58 105q0 65 52 97q42 27 111 27q57 0 112 -19q-4 47 -12 160q-133 -19 -266 -19v90
q120 0 262 20v140q-117 -17 -223 -17v90q78 0 199 17q135 18 190 42v-92q-34 -14 -95 -26l19 -7v-131q56 11 108 30v-92q-50 -18 -104 -30q1 -14 8 -108q5 -66 5 -109q75 -44 152 -122zM292 725q-58 -216 -58 -469q0 -135 29 -246l-90 -15q-29 112 -29 261q0 277 60 497z
M959 668q0 22 -14 36t-36 14q-20 0 -35 -14q-15 -15 -15 -36q0 -19 15 -35q16 -15 35 -15q21 0 35 14q15 16 15 36zM629 157q-56 23 -104 23q-71 0 -71 -34q0 -25 32 -37q24 -9 55 -9q69 0 88 57z" />
    <glyph glyph-name="uni307E" unicode="&#x307e;" 
d="M830 42l-71 -69q-99 94 -190 137q-28 -136 -184 -136q-79 0 -129 29q-62 36 -62 109q0 69 61 104q50 30 125 30q52 0 107 -11q-1 33 -2 107q-22 -1 -45 -1q-199 0 -199 93q0 38 33 78l84 -33q-24 -29 -24 -37q0 -5 33 -8q12 -1 73 -1q24 0 43 1v116q-25 -1 -48 -1
q-138 0 -241 17v90q103 -17 241 -17q21 0 44 1q-3 60 -8 136h98q1 -33 3 -128q147 13 251 38v-91q-112 -27 -250 -40v-30q-1 1 0 1v-1v-16l1 -67q113 13 208 40v-94q-84 -25 -207 -38l3 -141q154 -81 252 -167zM485 142q-50 13 -105 13q-95 0 -95 -43q0 -47 100 -47
q47 0 72 16q23 17 28 61z" />
    <glyph glyph-name="uni307F" unicode="&#x307f;" 
d="M905 282l-38 -87q-53 23 -112 47q-66 -207 -271 -284l-57 74q185 62 242 242q-150 52 -232 59q-52 -104 -88 -154q-68 -97 -134 -97q-44 0 -71 33q-25 30 -25 75q0 104 81 169q71 58 180 65q57 119 110 241q-98 -29 -223 -35l-4 91q176 9 298 67l55 -49
q-42 -102 -137 -320q89 -13 211 -53q11 73 11 182l91 -12q0 -116 -15 -201q57 -21 128 -53zM330 324q-121 -33 -121 -135q0 -17 12 -17q33 0 109 152z" />
    <glyph glyph-name="uni3080" unicode="&#x3080;" 
d="M912 499l-69 -60q-103 120 -176 166l64 66q74 -45 181 -172zM813 128q0 -150 -288 -150q-119 0 -184 23q-98 37 -98 133q0 11 1 22q-13 -3 -28 -3q-46 0 -75 33q-29 31 -29 78q0 79 48 149q54 76 131 76q13 0 26 -3l10 71q-19 -1 -29 -1q-101 0 -176 20v92
q77 -20 176 -20q11 0 36 2q4 67 6 130l91 -2q-2 -59 -6 -116q73 12 121 32v-90q-50 -23 -130 -36q-8 -69 -26 -171q5 -18 5 -29q0 -29 -30 -111q-31 -82 -31 -123q0 -65 191 -65q197 0 197 59q0 57 -33 124l93 8q31 -76 31 -132zM298 381q0 17 -7 17q-42 0 -68 -47
q-22 -40 -22 -85q0 -22 15 -22q39 0 63 51q19 42 19 86z" />
    <glyph glyph-name="uni3081" unicode="&#x3081;" 
d="M888 296q0 -241 -333 -316l-41 81q286 52 286 235q0 89 -61 150q-59 60 -149 68q-55 -181 -126 -305q24 -49 55 -93l-74 -50q-22 34 -37 59q-71 -89 -137 -89q-64 0 -102 52q-33 48 -33 115q0 77 37 155q34 73 92 130q-25 97 -41 202l86 25q13 -85 33 -168q80 47 179 55
q12 48 40 191l90 -19q-12 -75 -38 -173q120 -17 197 -101t77 -204zM497 508q-71 -15 -129 -54q21 -72 50 -143q45 90 79 197zM361 214q-33 73 -66 174q-70 -85 -70 -185q0 -78 46 -78q31 0 90 89z" />
    <glyph glyph-name="uni3082" unicode="&#x3082;" 
d="M828 195q0 -100 -72 -169q-74 -68 -175 -68q-110 0 -171 64q-62 63 -62 169q0 17 2 36q-154 1 -154 109q0 51 44 116l76 -47q-33 -54 -33 -68q0 -19 82 -19q29 138 43 221q-106 9 -188 35l24 87q77 -24 177 -32q11 84 13 169l93 -2q-2 -83 -13 -167q84 3 126 9l1 -90
q-47 -7 -141 -10q-18 -102 -39 -211q62 12 127 43l19 -88q-78 -37 -163 -49q-6 -39 -6 -51q0 -64 39 -99q40 -33 104 -33q62 0 109 42q48 42 48 103q0 91 -122 191l57 71q155 -128 155 -262z" />
    <glyph glyph-name="uni3083" unicode="&#x3083;" 
d="M824 326q0 -80 -58 -132q-58 -53 -139 -53q-56 0 -162 52l15 86q97 -54 147 -54q46 0 80 28q33 28 33 73q0 41 -34 66q-32 21 -74 20h-11q17 -40 26 -72l-80 -26q-11 38 -30 81q-56 -17 -123 -47q69 -239 86 -384l-83 -10q-16 132 -80 357q-51 -27 -101 -60l-36 77
q57 37 112 66q-29 94 -52 150l79 26q26 -65 50 -141q62 27 110 42q-29 54 -53 81l72 42q29 -32 65 -102q24 4 48 4q78 0 134 -45q59 -48 59 -125z" />
    <glyph glyph-name="uni3084" unicode="&#x3084;" 
d="M911 431q0 -101 -73 -167q-75 -66 -178 -66q-68 0 -201 65l16 93q118 -67 185 -67q65 0 112 40q48 39 48 102q0 59 -49 93q-44 30 -104 30q-18 0 -28 -1q25 -55 37 -97l-86 -28q-12 43 -41 105q-84 -25 -179 -68q95 -320 114 -500l-91 -11q-19 173 -106 471
q-74 -38 -135 -77l-39 83q65 43 147 84q-40 127 -67 197l85 28q31 -79 65 -186q90 40 165 63q-40 77 -69 109l77 45q33 -37 82 -133q41 8 69 8q99 0 169 -57q75 -60 75 -158z" />
    <glyph glyph-name="uni3085" unicode="&#x3085;" 
d="M793 299q0 -96 -58 -157q-58 -62 -153 -62q-39 -77 -167 -131l-44 72q95 38 125 78q-90 41 -114 169l81 22q16 -85 63 -111q9 47 9 120q0 35 -3 122q-71 -22 -133 -114q-61 -92 -61 -168q0 -19 6 -65l-79 -12q-34 106 -34 193q0 171 45 308l79 -27q-29 -91 -39 -218
q78 161 213 189l-3 101l86 -1l2 -97q84 -10 131 -67q48 -58 48 -144zM710 299q0 108 -94 126q1 -60 1 -126q0 -78 -9 -133q102 18 102 133z" />
    <glyph glyph-name="uni3086" unicode="&#x3086;" 
d="M872 396q0 -126 -74 -202q-75 -76 -200 -76q-49 -100 -210 -169l-47 75q126 50 166 112q-123 48 -154 210l85 24q23 -116 101 -149q13 66 13 175q0 48 -3 174q-106 -27 -181 -141q-97 -145 -97 -244q0 -26 8 -77l-85 -12q-42 131 -42 242q0 89 14 198q16 117 42 192
l84 -28q-45 -137 -51 -337q44 113 116 188q83 88 190 109l-4 130l91 -1q1 -35 3 -125q109 -10 172 -83q63 -74 63 -185zM783 396q0 157 -144 178q2 -119 2 -178q0 -114 -14 -188q74 7 116 61q40 50 40 127z" />
    <glyph glyph-name="uni3087" unicode="&#x3087;" 
d="M775 58l-60 -65q-78 70 -148 106q-26 -114 -156 -114q-63 0 -109 31q-53 35 -53 94t47 91q41 28 103 28q39 0 83 -9q-17 209 -18 384h90v-159q111 11 186 37v-88q-73 -26 -183 -35q0 -7 12 -167q104 -43 206 -134zM486 130q-43 13 -87 13q-65 0 -65 -33q0 -21 30 -32
q22 -8 47 -8q68 0 75 60z" />
    <glyph glyph-name="uni3088" unicode="&#x3088;" 
d="M846 69l-65 -69q-104 93 -200 140q-14 -77 -69 -117q-51 -38 -131 -38q-78 0 -136 38q-67 43 -67 117t60 112q50 33 129 33q55 0 120 -15q-23 272 -25 509h98v-211q149 13 246 46l1 -93q-96 -33 -243 -44q6 -89 18 -237q130 -52 264 -171zM494 174q-65 20 -127 20
q-99 0 -99 -54q0 -32 43 -51q33 -13 70 -13q106 0 113 98z" />
    <glyph glyph-name="uni3089" unicode="&#x3089;" 
d="M618 697l-47 -80q-55 24 -135 42t-137 18l17 91q147 0 302 -71zM813 255q0 -135 -158 -210q-121 -57 -277 -60l-39 89q120 3 228 40q152 50 152 141q0 46 -34 73q-31 24 -78 24q-174 0 -306 -203l-90 31q34 197 37 400l90 -12q-1 -96 -16 -247q132 126 285 126
q87 0 147 -52q59 -54 59 -140z" />
    <glyph glyph-name="uni308A" unicode="&#x308a;" 
d="M744 515q0 -255 -58 -363q-77 -144 -304 -185l-34 84q199 33 261 153q45 86 45 311q0 183 -5 256l90 1q5 -73 5 -257zM535 306q-53 -61 -120 -61q-73 0 -108 66q-27 50 -27 130q0 169 29 320h95q-33 -196 -33 -320q0 -104 44 -104q27 0 57 35z" />
    <glyph glyph-name="uni308B" unicode="&#x308b;" 
d="M840 229q0 -119 -96 -196q-89 -71 -210 -71q-82 0 -146 39q-75 46 -75 123q0 55 37 87q37 33 91 33q71 0 127 -47q39 -32 89 -105l-15 -15q108 50 108 152q0 70 -53 110q-47 35 -119 35q-98 0 -183 -55q-52 -34 -145 -127l-66 62q152 176 411 414q-156 -24 -285 -24v92
q233 0 373 46l77 -83q-96 -84 -278 -249q55 15 96 15q111 0 184 -61q78 -66 78 -175zM565 56q-55 97 -124 97q-38 0 -38 -29q0 -35 51 -55q39 -15 80 -15q15 0 31 2z" />
    <glyph glyph-name="uni308C" unicode="&#x308c;" 
d="M919 209q-32 -85 -59 -125q-47 -69 -109 -69q-112 0 -112 148q0 58 18 182q20 124 20 181q0 28 -21 28q-57 0 -170 -96q-75 -64 -147 -145q-2 -80 -2 -112q0 -39 3 -116q4 -76 4 -115h-87q0 39 -3 117q-4 79 -4 117q-63 -78 -93 -125l-52 77q78 104 151 252q2 34 5 96
q-61 -11 -137 -20l-3 84q76 9 147 24q11 110 24 198l86 -14q-10 -70 -20 -156l16 5l53 -47q-19 -32 -76 -141q202 209 305 209q54 0 83 -34q29 -33 29 -86q0 -57 -18 -181q-20 -124 -20 -182q0 -57 21 -57q30 0 92 152z" />
    <glyph glyph-name="uni308D" unicode="&#x308d;" 
d="M851 240q0 -136 -128 -203q-99 -52 -249 -52q-17 0 -80 4l-37 97l140 -6q88 0 163 36q97 45 97 124q0 67 -57 100q-47 28 -117 28q-115 0 -200 -54q-71 -45 -145 -149l-65 63q126 177 395 437q-182 -25 -263 -25v92q217 0 372 44l67 -70q-94 -80 -278 -265q65 21 117 21
q110 0 185 -54q83 -62 83 -168z" />
    <glyph glyph-name="uni308E" unicode="&#x308e;" 
d="M823 242q0 -170 -246 -251l-57 78q220 61 220 173q0 49 -31 79q-31 29 -80 29q-94 0 -215 -99q-1 -30 -1 -102q0 -110 11 -179h-83q-8 44 -8 195q-29 -33 -93 -111l-39 94q91 107 138 192l2 43q-50 -13 -115 -20l-7 84q77 8 128 19q4 84 10 149l82 -13q-4 -38 -10 -111
l13 4l51 -42l-62 -95q116 76 210 76q81 0 131 -56q51 -54 51 -136z" />
    <glyph glyph-name="uni308F" unicode="&#x308f;" 
d="M908 308q0 -208 -314 -307l-52 83q106 29 176 74q99 65 99 150q0 70 -34 112q-37 46 -106 46q-147 0 -300 -136q-4 -117 -4 -147q0 -151 11 -213h-86q-11 62 -11 270q-41 -45 -125 -150l-46 92q115 151 179 261l3 69q-56 -11 -153 -21l-10 84q98 10 167 26q3 64 16 191
l85 -13q-5 -37 -12 -150l28 10l49 -53q-30 -38 -86 -116v-27q162 114 295 114q107 0 171 -72q60 -69 60 -177z" />
    <glyph glyph-name="uni3090" unicode="&#x3090;" 
d="M886 234q0 -107 -66 -185q-69 -84 -174 -84q-69 0 -121 35q-56 40 -56 107q0 55 37 89q37 33 93 33q80 0 174 -91q24 45 24 96q0 102 -72 152q-61 44 -168 44q-163 -428 -302 -428q-56 0 -89 53q-28 44 -28 104q0 140 110 240q98 89 245 113q35 99 56 167
q-104 -25 -254 -25v89q178 0 299 48l59 -71q-27 -97 -63 -200q130 -4 211 -79q85 -79 85 -207zM711 72q-64 68 -112 68q-42 0 -42 -33q0 -27 33 -41q25 -11 56 -11q34 0 65 17zM455 412q-97 -29 -157 -90q-71 -71 -71 -163q0 -19 5 -40q9 -27 23 -27q41 0 116 139
q44 82 84 181z" />
    <glyph glyph-name="uni3091" unicode="&#x3091;" 
d="M903 33l-70 -53q-32 48 -93 107q-60 59 -108 88l56 68q113 -71 215 -210zM796 425q0 -85 -81 -135q-70 -42 -161 -42q-30 0 -68 8q-34 -18 -108 -59q47 -7 78 -44q14 -17 40 -66q17 -32 30 -32q24 0 56 90l67 -72q-52 -112 -123 -112q-44 0 -79 40q-6 8 -50 75
q-26 40 -49 40q-49 0 -96 -51q-25 -26 -68 -92l-63 60q54 101 113 156q53 49 160 107q-33 29 -33 65q0 44 30 68q30 26 74 26t77 -27q32 -26 32 -69q0 -13 -6 -28q49 3 89 25q52 27 52 69q0 43 -46 67q-38 19 -84 19q-118 0 -190 -41q-42 -24 -147 -126l-61 62
q63 67 157 145q23 20 168 133q-76 -13 -197 -28v88q151 5 331 49l67 -67q-82 -54 -188 -132q30 4 60 4q85 0 146 -43q71 -49 71 -130zM494 357q0 24 -25 24q-30 0 -30 -20q0 -15 37 -24q18 12 18 20z" />
    <glyph glyph-name="uni3092" unicode="&#x3092;" 
d="M880 369q-84 -21 -268 -78q0 -26 -1 -82q-1 -55 -1 -79h-89q0 19 1 62t1 64q-145 -63 -145 -118q0 -65 177 -65q31 0 211 12l3 -94q-122 -8 -214 -8q-266 0 -266 155q0 118 234 215q-7 58 -71 58q-72 0 -139 -56q-40 -35 -101 -116l-68 70q55 62 109 125q61 72 101 131
q-3 0 -8 -1h-9q-56 0 -133 6v88q64 -5 133 -5q19 0 73 4q29 58 53 122l88 -24q-19 -48 -38 -89q150 15 225 32v-90q-89 -20 -275 -36q-25 -40 -59 -83q36 11 60 11q120 0 144 -116q72 25 230 66z" />
    <glyph glyph-name="uni3093" unicode="&#x3093;" 
d="M901 294q-50 -147 -90 -211q-75 -115 -181 -115q-99 0 -126 92q-12 42 -12 172q0 68 -29 68q-50 0 -98 -36q-43 -34 -67 -82q-24 -50 -90 -214l-85 31q155 419 390 782l80 -43q-112 -171 -212 -374q45 28 91 28q68 0 92 -52q19 -35 19 -112v-36q-1 -24 -1 -34
q0 -99 48 -99q67 0 127 115q27 55 66 176z" />
    <glyph glyph-name="uni30A1" unicode="&#x30a1;" 
d="M778 468q-114 -116 -240 -201q-16 -90 -66 -157q-44 -57 -128 -112l-57 63q101 65 138 141q34 70 34 197h87v-20q45 35 86 70h-386v87h477z" />
    <glyph glyph-name="uni30A2" unicode="&#x30a2;" 
d="M852 607q-152 -154 -313 -263q-19 -118 -80 -201q-56 -75 -164 -145l-63 67q132 84 179 184q43 90 43 254h94v-37q76 57 151 124h-527v94h616z" />
    <glyph glyph-name="uni30A3" unicode="&#x30a3;" 
d="M754 542q-46 -73 -125 -149v-414h-86v337q-107 -88 -218 -151l-55 68q115 64 226 158q126 105 185 198z" />
    <glyph glyph-name="uni30A4" unicode="&#x30a4;" 
d="M816 710q-59 -93 -160 -189v-542h-93v458q-145 -121 -297 -206l-58 72q144 81 290 203q162 136 239 255z" />
    <glyph glyph-name="uni30A5" unicode="&#x30a5;" 
d="M739 481q-7 -216 -66 -315q-69 -115 -262 -178l-43 76q147 48 205 110q67 73 77 220h-280v-147h-85v234h176v108h85v-108h193z" />
    <glyph glyph-name="uni30A6" unicode="&#x30a6;" 
d="M803 615q-9 -276 -84 -401q-89 -146 -335 -226l-48 81q196 63 273 153q83 97 97 298h-391v-193h-94v288h234v142h94v-142h254z" />
    <glyph glyph-name="uni30A7" unicode="&#x30a7;" 
d="M788 123h-552v85h233v219h-180v85h446v-85h-180v-219h233v-85z" />
    <glyph glyph-name="uni30A8" unicode="&#x30a8;" 
d="M867 123h-710v93h308v314h-237v93h568v-93h-237v-314h308v-93z" />
    <glyph glyph-name="uni30A9" unicode="&#x30a9;" 
d="M795 376h-168v-233q0 -78 -34 -114t-111 -36l-33 87q65 0 73 4q18 9 18 59v145q-110 -135 -256 -216l-55 69q156 86 269 235h-239v87h281v127h87v-127h168v-87z" />
    <glyph glyph-name="uni30AA" unicode="&#x30aa;" 
d="M872 498h-223v-317q0 -95 -39 -140q-41 -48 -134 -48l-37 95q78 0 91 9q25 14 25 84v220q-149 -192 -345 -300l-58 73q203 113 358 324h-325v94h370v167h94v-167h223v-94z" />
    <glyph glyph-name="uni30AB" unicode="&#x30ab;" 
d="M835 531q0 -127 -14 -318q-5 -77 -51 -128q-49 -54 -125 -54q-17 0 -58 3l-24 100q68 -9 82 -9q33 0 55 24q23 23 27 69q2 24 13 266h-187q-25 -162 -97 -271q-68 -101 -208 -197l-59 72q123 84 181 167q64 90 88 229h-234v94h245q6 76 6 160h93q0 -105 -4 -160h271v-47z
" />
    <glyph glyph-name="uni30AC" unicode="&#x30ac;" 
d="M983 712l-64 -31q-25 68 -59 119l62 32q31 -52 61 -120zM878 672l-65 -31q-25 68 -58 119l61 32q32 -52 62 -120zM835 531q0 -127 -14 -318q-5 -77 -51 -128q-49 -54 -125 -54q-17 0 -58 3l-24 100q68 -9 82 -9q33 0 55 24q23 23 27 69q2 24 13 266h-187
q-25 -162 -97 -271q-68 -101 -208 -197l-59 72q123 84 181 167q64 90 88 229h-234v94h245q6 76 6 160h93q0 -105 -4 -160h271v-47z" />
    <glyph glyph-name="uni30AD" unicode="&#x30ad;" 
d="M865 266l-296 -12l23 -278l-93 -8l-24 283l-312 -12l-4 94l309 12l-12 149l-251 -6l-3 94l247 7l-16 186l94 8l16 -192l266 7l2 -94l-261 -7l12 -148l299 11z" />
    <glyph glyph-name="uni30AE" unicode="&#x30ae;" 
d="M986 730l-64 -30q-24 64 -60 119l63 32q29 -49 61 -121zM881 691l-65 -31q-23 64 -59 119l62 32q30 -49 62 -120zM865 266l-296 -12l23 -278l-93 -8l-24 283l-312 -12l-4 94l309 12l-12 149l-251 -6l-3 94l247 7l-16 186l94 8l16 -192l266 7l2 -94l-261 -7l12 -148
l299 11z" />
    <glyph glyph-name="uni30AF" unicode="&#x30af;" 
d="M820 576q-52 -233 -162 -372q-113 -142 -327 -239l-57 78q180 79 283 193q109 120 156 303h-262q-80 -139 -180 -230l-67 65q78 72 152 196q73 121 103 225l85 -42q-19 -63 -44 -120h260z" />
    <glyph glyph-name="uni30B0" unicode="&#x30b0;" 
d="M989 744l-63 -31q-24 65 -60 119l63 33q25 -43 60 -121zM884 704l-64 -31q-23 65 -59 119l62 33q26 -43 61 -121zM820 576q-52 -233 -162 -372q-113 -142 -327 -239l-57 78q180 79 283 193q109 120 156 303h-262q-80 -139 -180 -230l-67 65q78 72 152 196q73 121 103 225
l85 -42q-19 -63 -44 -120h260z" />
    <glyph glyph-name="uni30B1" unicode="&#x30b1;" 
d="M893 497h-235q-5 -189 -65 -301q-66 -120 -224 -209l-62 70q140 78 198 179q54 95 59 261h-222q-66 -123 -142 -196l-69 64q69 64 134 191q59 112 88 220l90 -26q-22 -82 -56 -159h506v-94z" />
    <glyph glyph-name="uni30B2" unicode="&#x30b2;" 
d="M997 726l-64 -30q-25 67 -59 118l62 32q32 -52 61 -120zM892 686l-65 -30q-24 67 -58 119l61 32q30 -49 62 -121zM893 497h-235q-5 -189 -65 -301q-66 -120 -224 -209l-62 70q140 78 198 179q54 95 59 261h-222q-66 -123 -142 -196l-69 64q69 64 134 191q59 112 88 220
l90 -26q-22 -82 -56 -159h506v-94z" />
    <glyph glyph-name="uni30B3" unicode="&#x30b3;" 
d="M784 100h-544v93h451v339h-445v92h538v-524z" />
    <glyph glyph-name="uni30B4" unicode="&#x30b4;" 
d="M997 737l-64 -31q-25 68 -59 119l62 31q32 -52 61 -119zM892 697l-65 -31q-24 68 -58 119l61 33q30 -50 62 -121zM784 100h-544v93h451v339h-445v92h538v-524z" />
    <glyph glyph-name="uni30B5" unicode="&#x30b5;" 
d="M895 456h-202v-58q0 -286 -282 -407l-55 75q243 103 243 332v58h-183v-224h-95v224h-192v94h192v184h95v-184h183v183h94v-183h202v-94z" />
    <glyph glyph-name="uni30B6" unicode="&#x30b6;" 
d="M985 701l-64 -31q-25 68 -59 119l62 32q31 -53 61 -120zM880 661l-65 -31q-24 68 -58 119l61 32q32 -53 62 -120zM895 456h-202v-58q0 -286 -282 -407l-55 75q243 103 243 332v58h-183v-224h-95v224h-192v94h192v184h95v-184h183v183h94v-183h202v-94z" />
    <glyph glyph-name="uni30B7" unicode="&#x30b7;" 
d="M509 628l-57 -73q-76 62 -189 110l54 78q97 -37 192 -115zM831 458q-182 -312 -585 -418l-32 90q384 102 552 395zM425 418l-58 -74q-70 53 -174 102l49 80q107 -52 183 -108z" />
    <glyph glyph-name="uni30B8" unicode="&#x30b8;" 
d="M868 681l-64 -30q-24 64 -60 118l63 32q32 -52 61 -120zM763 641l-65 -30q-23 64 -59 118l62 33q30 -49 62 -121zM509 628l-57 -73q-76 62 -189 110l54 78q97 -37 192 -115zM831 458q-182 -312 -585 -418l-32 90q384 102 552 395zM425 418l-58 -74q-70 53 -174 102l49 80
q107 -52 183 -108z" />
    <glyph glyph-name="uni30B9" unicode="&#x30b9;" 
d="M852 62l-68 -65q-85 103 -120 142q-70 78 -132 131q-132 -151 -307 -262l-53 76q137 86 254 209q122 127 194 264h-397v94h455l62 -62q-61 -134 -149 -249q96 -81 261 -278z" />
    <glyph glyph-name="uni30BA" unicode="&#x30ba;" 
d="M958 718l-64 -31q-25 68 -58 119l61 32q32 -52 61 -120zM853 678l-65 -30q-24 67 -58 118l62 33q29 -49 61 -121zM852 62l-68 -65q-85 103 -120 142q-70 78 -132 131q-132 -151 -307 -262l-53 76q137 86 254 209q122 127 194 264h-397v94h455l62 -62q-61 -134 -149 -249
q96 -81 261 -278z" />
    <glyph glyph-name="uni30BB" unicode="&#x30bb;" 
d="M862 512q-108 -138 -284 -264l-64 71q121 86 197 163l-271 -29v-251q0 -41 20 -54q14 -9 55 -9q56 0 147 2q115 4 146 4l1 -94q-32 0 -146 -5q-92 -2 -148 -2q-169 0 -169 158v241l-169 -19l-15 95l184 19v215h94v-206l361 38z" />
    <glyph glyph-name="uni30BC" unicode="&#x30bc;" 
d="M967 708l-65 -31q-24 68 -58 119l61 32q32 -52 62 -120zM861 668l-64 -31q-25 68 -59 119l62 33q29 -49 61 -121zM862 512q-108 -138 -284 -264l-64 71q121 86 197 163l-271 -29v-251q0 -41 20 -54q14 -9 55 -9q56 0 147 2q115 4 146 4l1 -94q-32 0 -146 -5
q-92 -2 -148 -2q-169 0 -169 158v241l-169 -19l-15 95l184 19v215h94v-206l361 38z" />
    <glyph glyph-name="uni30BD" unicode="&#x30bd;" 
d="M819 655q-28 -253 -121 -392q-93 -140 -314 -267l-59 73q207 119 292 246q85 126 112 362zM429 457l-81 -50q-76 134 -143 219l78 50q91 -114 146 -219z" />
    <glyph glyph-name="uni30BE" unicode="&#x30be;" 
d="M952 754l-63 -31q-24 65 -60 119l63 33q26 -43 60 -121zM847 714l-64 -31q-23 65 -59 119l62 33q26 -43 61 -121zM819 655q-28 -253 -121 -392q-93 -140 -314 -267l-59 73q207 119 292 246q85 126 112 362zM429 457l-81 -50q-76 134 -143 219l78 50q91 -114 146 -219z
" />
    <glyph glyph-name="uni30BF" unicode="&#x30bf;" 
d="M833 587q-74 -233 -206 -378q-131 -144 -358 -244l-49 80q207 93 322 211q-55 49 -146 121l62 73q51 -41 145 -122q75 99 119 222h-271q-84 -131 -196 -236l-64 68q177 167 282 406l88 -31q-23 -52 -55 -111h269z" />
    <glyph glyph-name="uni30C0" unicode="&#x30c0;" 
d="M995 735l-64 -31q-25 67 -59 119l62 31q32 -52 61 -119zM890 695l-65 -31q-24 68 -58 119l61 32q30 -49 62 -120zM833 587q-74 -233 -206 -378q-131 -144 -358 -244l-49 80q207 93 322 211q-55 49 -146 121l62 73q51 -41 145 -122q75 99 119 222h-271q-84 -131 -196 -236
l-64 68q177 167 282 406l88 -31q-23 -52 -55 -111h269z" />
    <glyph glyph-name="uni30C1" unicode="&#x30c1;" 
d="M863 365h-296q-4 -132 -94 -235q-80 -91 -212 -146l-50 81q107 45 175 115q81 83 87 185h-312v94h312v138q-115 -14 -223 -19l-25 91q306 15 512 72l25 -91q-87 -24 -195 -40v-151h296v-94z" />
    <glyph glyph-name="uni30C2" unicode="&#x30c2;" 
d="M996 579l-64 -31q-25 68 -59 119l62 32q32 -52 61 -120zM891 539l-65 -31q-24 68 -58 119l61 32q32 -52 62 -120zM863 365h-296q-4 -132 -94 -235q-80 -91 -212 -146l-50 81q107 45 175 115q81 83 87 185h-312v94h312v138q-115 -14 -223 -19l-25 91q306 15 512 72l25 -91
q-87 -24 -195 -40v-151h296v-94z" />
    <glyph glyph-name="uni30C3" unicode="&#x30c3;" 
d="M599 372l-79 -39q-44 96 -92 160l76 45q60 -90 95 -166zM775 508q-32 -207 -110 -321q-90 -127 -273 -200l-46 75q170 64 249 178q69 100 98 292zM425 350l-76 -42q-51 94 -100 148l74 47q48 -52 102 -153z" />
    <glyph glyph-name="uni30C4" unicode="&#x30c4;" 
d="M612 488l-87 -42q-54 118 -111 193l83 50q73 -111 115 -201zM846 656q-40 -263 -143 -412q-113 -165 -347 -257l-50 81q218 82 322 233q90 134 128 379zM382 457l-83 -45q-63 117 -121 180l80 51q56 -62 124 -186z" />
    <glyph glyph-name="uni30C5" unicode="&#x30c5;" 
d="M1005 751l-65 -31q-25 68 -58 119l61 32q32 -52 62 -120zM899 711l-64 -31q-25 68 -59 119l62 33q29 -49 61 -121zM612 488l-87 -42q-54 118 -111 193l83 50q73 -111 115 -201zM846 656q-40 -263 -143 -412q-113 -165 -347 -257l-50 81q218 82 322 233q90 134 128 379z
M382 457l-83 -45q-63 117 -121 180l80 51q56 -62 124 -186z" />
    <glyph glyph-name="uni30C6" unicode="&#x30c6;" 
d="M760 601h-496v95h496v-95zM855 378h-273q-17 -155 -84 -244q-67 -90 -211 -155l-56 81q127 56 181 119q60 69 75 199h-318v94h686v-94z" />
    <glyph glyph-name="uni30C7" unicode="&#x30c7;" 
d="M1007 728l-65 -30q-24 67 -58 119l61 31q32 -52 62 -120zM901 689l-64 -31q-25 67 -59 119l62 32q29 -49 61 -120zM760 601h-496v95h496v-95zM855 378h-273q-17 -155 -84 -244q-67 -90 -211 -155l-56 81q127 56 181 119q60 69 75 199h-318v94h686v-94z" />
    <glyph glyph-name="uni30C8" unicode="&#x30c8;" 
d="M791 305l-64 -70q-89 87 -233 169v-424h-93v778h93v-273l13 15q173 -88 284 -195z" />
    <glyph glyph-name="uni30C9" unicode="&#x30c9;" 
d="M865 640l-64 -30q-24 64 -60 118l63 32q32 -52 61 -120zM760 600l-65 -30q-23 64 -59 119l62 32q30 -49 62 -121zM791 305l-64 -70q-89 87 -233 169v-424h-93v778h93v-273l13 15q173 -88 284 -195z" />
    <glyph glyph-name="uni30CA" unicode="&#x30ca;" 
d="M866 434h-291q-6 -169 -66 -267q-64 -101 -213 -171l-68 73q133 57 190 138q56 81 63 227h-323v94h324q1 82 5 211l95 -2q-2 -62 -5 -209h289v-94z" />
    <glyph glyph-name="uni30CB" unicode="&#x30cb;" 
d="M768 507h-512v93h512v-93zM863 116h-702v93h702v-93z" />
    <glyph glyph-name="uni30CC" unicode="&#x30cc;" 
d="M837 130l-67 -66q-54 65 -186 172q-127 -137 -335 -247l-62 75q202 103 323 230q-123 93 -222 151l65 68q89 -51 217 -147q75 98 120 213h-449v94h507l59 -45q-64 -188 -162 -319q130 -105 192 -179z" />
    <glyph glyph-name="uni30CD" unicode="&#x30cd;" 
d="M889 177l-64 -72q-123 123 -242 201l62 67q133 -86 244 -196zM774 567q-117 -130 -227 -219v-389h-92v320q-110 -76 -270 -159l-50 80q312 162 493 344h-427v92h252v161h91v-161h170z" />
    <glyph glyph-name="uni30CE" unicode="&#x30ce;" 
d="M763 657q-52 -230 -149 -369q-97 -138 -295 -269l-58 74q184 122 274 250q93 133 141 344z" />
    <glyph glyph-name="uni30CF" unicode="&#x30cf;" 
d="M928 157l-87 -47q-32 102 -117 245q-82 137 -158 219l79 53q83 -90 164 -222q85 -138 119 -248zM421 597q-56 -280 -251 -484l-74 65q186 191 238 452z" />
    <glyph glyph-name="uni30D0" unicode="&#x30d0;" 
d="M975 656l-65 -31q-24 68 -58 119l61 32q32 -53 62 -120zM869 616l-64 -31q-25 68 -59 119l62 33q30 -50 61 -121zM928 157l-87 -47q-32 102 -117 245q-82 137 -158 219l79 53q83 -90 164 -222q85 -138 119 -248zM421 597q-56 -280 -251 -484l-74 65q186 191 238 452z" />
    <glyph glyph-name="uni30D1" unicode="&#x30d1;" 
d="M946 686q0 -42 -30 -71q-29 -30 -71 -30t-72 30q-30 29 -30 71t30 72t72 30t71 -30q30 -30 30 -72zM928 157l-87 -47q-32 102 -117 245q-82 137 -158 219l79 53q83 -90 164 -222q85 -138 119 -248zM421 597q-56 -280 -251 -484l-74 65q186 191 238 452zM895 686
q0 22 -14 36q-15 15 -36 15t-36 -15q-14 -15 -14 -36q0 -19 15 -34q15 -16 35 -16t36 15q14 15 14 35z" />
    <glyph glyph-name="uni30D2" unicode="&#x30d2;" 
d="M780 53q-184 -12 -304 -12q-116 0 -166 30q-66 39 -66 145v529h93v-254q186 14 387 54v-95q-200 -39 -387 -53v-181q0 -50 19 -65q21 -15 120 -15q70 0 304 14v-97z" />
    <glyph glyph-name="uni30D3" unicode="&#x30d3;" 
d="M936 686l-65 -30q-24 67 -58 119l61 31q32 -52 62 -120zM830 647l-64 -31q-25 67 -58 119l61 31q32 -52 61 -119zM780 53q-184 -12 -304 -12q-116 0 -166 30q-66 39 -66 145v529h93v-254q186 14 387 54v-95q-200 -39 -387 -53v-181q0 -50 19 -65q21 -15 120 -15
q70 0 304 14v-97z" />
    <glyph glyph-name="uni30D4" unicode="&#x30d4;" 
d="M926 699q0 -42 -30 -72t-72 -30t-71 30q-30 30 -30 72t30 71q29 30 71 30t72 -30q30 -29 30 -71zM780 53q-184 -12 -304 -12q-116 0 -166 30q-66 39 -66 145v529h93v-254q186 14 387 54v-95q-200 -39 -387 -53v-181q0 -50 19 -65q21 -15 120 -15q70 0 304 14v-97z
M874 699q0 21 -14 36q-14 14 -36 14q-20 0 -36 -14q-14 -16 -14 -36t16 -35q15 -15 34 -15q21 0 36 14q14 15 14 36z" />
    <glyph glyph-name="uni30D5" unicode="&#x30d5;" 
d="M824 670q-16 -262 -111 -410q-97 -147 -328 -264l-66 80q191 85 280 189q100 116 124 311h-523v94h624z" />
    <glyph glyph-name="uni30D6" unicode="&#x30d6;" 
d="M1001 754l-64 -31q-25 68 -58 119l61 32q32 -52 61 -120zM896 714l-65 -31q-24 68 -58 119l62 32q31 -52 61 -120zM824 670q-16 -262 -111 -410q-97 -147 -328 -264l-66 80q191 85 280 189q100 116 124 311h-523v94h624z" />
    <glyph glyph-name="uni30D7" unicode="&#x30d7;" 
d="M1012 768q0 -42 -30 -71q-30 -30 -72 -30t-71 30q-30 29 -30 71t30 72q29 30 71 30t72 -30t30 -72zM824 670q-16 -262 -111 -410q-97 -147 -328 -264l-66 80q191 85 280 189q100 116 124 311h-523v94h624zM961 768q0 22 -15 36q-14 15 -36 15q-20 0 -36 -15
q-14 -15 -14 -36q0 -19 16 -34q15 -16 34 -16q21 0 36 15t15 35z" />
    <glyph glyph-name="uni30D8" unicode="&#x30d8;" 
d="M901 172l-74 -72l-341 358q-23 26 -57 51q-16 -18 -238 -252l-68 67q77 82 185 194l54 54q38 33 66 33q33 0 71 -29q16 -12 56 -53z" />
    <glyph glyph-name="uni30D9" unicode="&#x30d9;" 
d="M866 592l-64 -30q-24 64 -60 118l63 32q32 -52 61 -120zM761 552l-65 -30q-23 64 -59 118l62 33q30 -49 62 -121zM901 172l-74 -72l-341 358q-23 26 -57 51q-16 -18 -238 -252l-68 67q77 82 185 194l54 54q38 33 66 33q33 0 71 -29q16 -12 56 -53z" />
    <glyph glyph-name="uni30DA" unicode="&#x30da;" 
d="M858 618q0 -42 -30 -72q-29 -30 -71 -30t-72 30t-30 72t30 72q30 29 72 29t71 -29q30 -30 30 -72zM901 172l-74 -72l-341 358q-23 26 -57 51q-16 -18 -238 -252l-68 67q77 82 185 194l54 54q38 33 66 33q33 0 71 -29q16 -12 56 -53zM807 618q0 21 -14 36q-15 14 -36 14
t-36 -15q-14 -15 -14 -35t15 -35t35 -15t36 15q14 14 14 35z" />
    <glyph glyph-name="uni30DB" unicode="&#x30db;" 
d="M918 163l-64 -76q-143 123 -226 291l81 49q72 -147 209 -264zM848 501h-303v-508h-94v508h-294v94h294v161h94v-161h303v-94zM372 391q-22 -58 -87 -166q-69 -111 -110 -150l-69 65q36 33 99 137q61 100 80 152z" />
    <glyph glyph-name="uni30DC" unicode="&#x30dc;" 
d="M963 727l-65 -30q-24 64 -59 118l62 32q32 -52 62 -120zM857 687l-64 -30q-24 64 -60 119l63 32q29 -49 61 -121zM918 163l-64 -76q-143 123 -226 291l81 49q72 -147 209 -264zM848 501h-303v-508h-94v508h-294v94h294v161h94v-161h303v-94zM372 391q-22 -58 -87 -166
q-69 -111 -110 -150l-69 65q36 33 99 137q61 100 80 152z" />
    <glyph glyph-name="uni30DD" unicode="&#x30dd;" 
d="M938 739q0 -42 -30 -72q-29 -30 -71 -30t-72 30t-30 72t30 71q30 30 72 30t71 -30q30 -29 30 -71zM918 163l-64 -76q-143 123 -226 291l81 49q72 -147 209 -264zM848 501h-303v-508h-94v508h-294v94h294v161h94v-161h303v-94zM372 391q-22 -58 -87 -166
q-69 -111 -110 -150l-69 65q36 33 99 137q61 100 80 152zM887 739q0 22 -15 37q-14 14 -35 14q-22 0 -36 -14q-15 -16 -15 -37q0 -20 16 -35q15 -15 35 -15t35 15q15 14 15 35z" />
    <glyph glyph-name="uni30DE" unicode="&#x30de;" 
d="M847 531q-152 -226 -290 -367q31 -28 91 -87l-67 -65q-98 102 -295 267l61 71q51 -43 140 -122q116 120 225 272h-535v94h601z" />
    <glyph glyph-name="uni30DF" unicode="&#x30df;" 
d="M716 639l-32 -90q-68 34 -182 65q-106 28 -191 39l28 92q220 -29 377 -106zM685 385l-36 -88q-165 74 -327 97l27 91q170 -25 336 -100zM778 63l-43 -85q-190 88 -489 138l39 88q293 -49 493 -141z" />
    <glyph glyph-name="uni30E0" unicode="&#x30e0;" 
d="M890 104l-80 -50q-16 40 -53 101q-91 -16 -314 -39q-94 -10 -282 -23l-27 94q48 2 98 6q49 90 127 267q44 98 62 141q34 79 54 144l87 -37q-62 -194 -217 -505q120 10 357 39q-75 116 -124 168l75 57q56 -59 131 -175q75 -115 106 -188z" />
    <glyph glyph-name="uni30E1" unicode="&#x30e1;" 
d="M808 252l-64 -68q-48 50 -119 111q-116 -161 -354 -307l-55 77q226 138 335 292q-109 87 -195 140l60 77q82 -51 186 -135q66 118 111 295l84 -40q-49 -193 -120 -318q72 -61 131 -124z" />
    <glyph glyph-name="uni30E2" unicode="&#x30e2;" 
d="M861 352l-366 -8v-163q0 -29 15 -39q11 -7 42 -7q135 0 258 20v-104q-140 -11 -258 -11q-78 0 -115 32t-37 109v161l-237 -4v93l237 6v163l-200 -10v93l560 31v-94l-265 -14v-167l366 6v-93z" />
    <glyph glyph-name="uni30E3" unicode="&#x30e3;" 
d="M809 395q-103 -131 -228 -244l-59 65q83 74 147 146l-186 -25l45 -348l-86 -11l-45 348l-171 -23l-11 88l171 21l-22 168l86 11l22 -168l279 37z" />
    <glyph glyph-name="uni30E4" unicode="&#x30e4;" 
d="M890 513q-133 -169 -285 -305l-63 71q101 90 201 206l-278 -37l59 -458l-93 -12l-60 458l-225 -30l-12 94l224 29l-28 221l93 12l30 -221l369 49z" />
    <glyph glyph-name="uni30E5" unicode="&#x30e5;" 
d="M792 116h-560v85h341l11 227h-277v85h367l-15 -312h133v-85z" />
    <glyph glyph-name="uni30E6" unicode="&#x30e6;" 
d="M871 116h-718v93h450l14 323h-365v93h464l-19 -416h174v-93z" />
    <glyph glyph-name="uni30E7" unicode="&#x30e7;" 
d="M717 75h-410v86h325v104h-309v86h309v105h-321v86h406v-467z" />
    <glyph glyph-name="uni30E8" unicode="&#x30e8;" 
d="M775 75h-526v93h433v158h-412v93h412v161h-427v93h520v-598z" />
    <glyph glyph-name="uni30E9" unicode="&#x30e9;" 
d="M767 609h-509v94h509v-94zM823 504q-27 -224 -128 -335q-88 -96 -311 -178l-43 87q166 65 233 116q104 79 136 216h-509v94h622z" />
    <glyph glyph-name="uni30EA" unicode="&#x30ea;" 
d="M718 341q0 -142 -94 -237q-76 -77 -225 -132l-47 89q275 91 275 280v381h91v-381zM398 257h-92v448h92v-448z" />
    <glyph glyph-name="uni30EB" unicode="&#x30eb;" 
d="M904 402q-120 -230 -326 -374l-70 40v664h95v-569q132 113 228 298zM414 679q0 -248 -27 -345q-45 -165 -204 -269l-63 72q117 76 154 155q32 67 41 190q4 56 4 197h95z" />
    <glyph glyph-name="uni30EC" unicode="&#x30ec;" 
d="M810 452q-114 -166 -229 -257q-102 -80 -299 -170l-68 44v635h93v-562q154 73 246 154q92 80 190 223z" />
    <glyph glyph-name="uni30ED" unicode="&#x30ed;" 
d="M780 115h-536v518h536v-518zM687 208v332h-349v-332h349z" />
    <glyph glyph-name="uni30EE" unicode="&#x30ee;" 
d="M734 476q0 -197 -70 -303q-71 -105 -251 -182l-52 77q153 60 211 130q68 80 75 235h-271v-165h-86v251h444v-43z" />
    <glyph glyph-name="uni30EF" unicode="&#x30ef;" 
d="M797 618q0 -256 -90 -391q-90 -137 -323 -236l-56 84q200 79 280 178q87 110 94 318h-380v-217h-95v311h570v-47z" />
    <glyph glyph-name="uni30F0" unicode="&#x30f0;" 
d="M878 224h-235v-251h-92v251h-405v92h126v202h-79v91h358v168h92v-168h197v-91h-197v-202h235v-92zM551 316v202h-186v-202h186z" />
    <glyph glyph-name="uni30F1" unicode="&#x30f1;" 
d="M870 101h-716v93h287v267h95v-30l150 124h-465v94h573l65 -72l-323 -266v-117h334v-93z" />
    <glyph glyph-name="uni30F2" unicode="&#x30f2;" 
d="M806 641q0 -262 -107 -410q-109 -152 -358 -227l-46 88q152 46 235 104q108 77 150 205h-455v94h477q8 48 10 99h-494v93h588v-46z" />
    <glyph glyph-name="uni30F3" unicode="&#x30f3;" 
d="M425 579l-53 -78q-69 62 -182 118l50 81q114 -58 185 -121zM835 562q-103 -222 -237 -332q-134 -111 -371 -169l-38 87q224 56 346 155q125 102 220 308z" />
    <glyph glyph-name="uni30F4" unicode="&#x30f4;" 
d="M963 743l-65 -31q-24 65 -59 119l62 32q32 -53 62 -120zM857 703l-64 -31q-24 65 -60 119l63 33q29 -49 61 -121zM803 615q-9 -276 -84 -401q-89 -146 -335 -226l-48 81q196 63 273 153q83 97 97 298h-391v-193h-94v288h234v142h94v-142h254z" />
    <glyph glyph-name="uni30F5" unicode="&#x30f5;" 
d="M766 417q0 -81 -11 -242q-4 -63 -41 -102q-39 -42 -101 -42q-13 0 -50 2l-21 92q61 -8 71 -8q50 0 56 65q2 24 10 192h-129q-20 -123 -78 -207q-53 -78 -161 -151l-53 67q93 65 136 122q49 68 69 169h-175v87h185q4 54 4 121h86q0 -76 -3 -121h206v-44z" />
    <glyph glyph-name="uni30F6" unicode="&#x30f6;" 
d="M811 376h-178q-6 -146 -54 -231q-52 -88 -176 -158l-57 65q108 60 151 130t49 194h-158q-51 -94 -112 -151l-63 59q55 52 105 150q44 85 69 172l84 -24q-17 -61 -41 -118h381v-88z" />
    <glyph glyph-name="uni3105" unicode="&#x3105;" 
d="M897 554q-3 -286 -14 -400q-20 -201 -178 -201q-66 0 -183 29v102q109 -38 163 -38t80 38q17 29 25 87q11 97 14 295h-647l-30 76q109 114 198 229l77 -49q-32 -43 -144 -168h639z" />
    <glyph glyph-name="uni3106" unicode="&#x3106;" 
d="M884 22l-70 -68q-87 76 -220 184q-174 -135 -422 -173l-32 85q224 34 370 143q-157 94 -307 161l43 82q178 -81 341 -185q98 107 156 256h-552l-39 92q87 93 165 198l74 -56q-42 -57 -128 -148h537l50 -68q-56 -172 -187 -324q112 -82 221 -179z" />
    <glyph glyph-name="uni3107" unicode="&#x3107;" 
d="M871 22h-93v570q0 38 -37 38h-458q-37 0 -37 -38v-574h-93v632q0 29 21 50q22 19 51 19h559q34 0 61 -19q26 -19 26 -50v-628z" />
    <glyph glyph-name="uni3108" unicode="&#x3108;" 
d="M886 11h-674q-29 0 -51 17q-23 16 -23 43v563q0 28 21 44q20 17 49 17h673v-89h-611q-39 0 -39 -37v-432q0 -37 39 -37h616v-89z" />
    <glyph glyph-name="uni3109" unicode="&#x3109;" 
d="M906 558q-3 -281 -15 -389q-25 -216 -177 -216q-78 0 -194 33v95q111 -38 170 -38q101 0 116 156q6 68 10 274h-277q-54 -161 -145 -289q-99 -143 -230 -223l-46 74q221 147 326 438h-288l-33 73q126 127 203 230l76 -51q-52 -73 -141 -167h645z" />
    <glyph glyph-name="uni310A" unicode="&#x310a;" 
d="M918 21l-84 -43q-26 59 -54 115l-594 -108l-50 93q163 177 276 403h-306v87h346q40 106 63 190l93 -21q-11 -42 -61 -169h362v-87l-400 1q-84 -189 -252 -395l482 80q-41 65 -72 112l69 48q105 -149 182 -306z" />
    <glyph glyph-name="uni310B" unicode="&#x310b;" 
d="M864 513q-14 -196 -21 -244q-21 -148 -57 -208q-54 -91 -177 -91q-47 0 -172 34l-6 106q109 -47 159 -47q142 0 163 211q3 49 11 150h-262l-35 64l99 195h-406v88h469l44 -77l-90 -181h281z" />
    <glyph glyph-name="uni310C" unicode="&#x310c;" 
d="M901 551q2 -207 -13 -365q-10 -110 -43 -159q-44 -66 -143 -66q-82 0 -182 27v98q115 -34 168 -34q60 0 82 40q14 24 23 92q12 100 15 280h-228q-60 -178 -147 -291q-100 -130 -254 -197l-43 73q133 60 220 167q77 96 133 248h-318l-48 82q110 112 203 234l69 -58
q-44 -58 -143 -171h262q34 125 48 208l86 -15q-23 -118 -44 -193h297z" />
    <glyph glyph-name="uni310D" unicode="&#x310d;" 
d="M850 708q-81 -168 -199 -367q100 -153 188 -331l-95 -41q-84 185 -198 372q123 206 210 409zM467 2l-95 -42q-81 193 -198 381q96 188 186 427l90 -38q-71 -193 -171 -380q116 -195 188 -348z" />
    <glyph glyph-name="uni310E" unicode="&#x310e;" 
d="M909 643h-449q-34 -64 -104 -191h454q0 -19 -6 -194q-10 -278 -226 -278q-62 0 -172 24l-3 100q115 -30 167 -30q67 0 105 53q32 45 35 115l6 124h-424l-53 72q58 90 118 205h-242v86h794v-86z" />
    <glyph glyph-name="uni310F" unicode="&#x310f;" 
d="M914 649h-576q-4 -299 -37 -425q-37 -143 -119 -270l-72 59q91 147 119 351q18 124 18 373h667v-88z" />
    <glyph glyph-name="uni3110" unicode="&#x3110;" 
d="M804 -43h-93v306q-401 -97 -421 -97q-70 0 -70 57v515h93v-426q0 -37 38 -37q15 0 360 81v415h93v-814z" />
    <glyph glyph-name="uni3111" unicode="&#x3111;" 
d="M753 7l-76 -60q-151 176 -406 385q216 237 365 450l79 -56q-137 -187 -314 -389q208 -172 352 -330z" />
    <glyph glyph-name="uni3112" unicode="&#x3112;" 
d="M911 652h-353v-687h-94v687h-351v89h798v-89z" />
    <glyph glyph-name="uni3113" unicode="&#x3113;" 
d="M913 -4h-802v86h357v209h-235q-33 0 -55 23q-21 22 -21 56v319h93v-273q0 -37 37 -37h181v381h92v-381h170q37 0 37 37v273h94v-319q0 -35 -23 -57q-24 -22 -59 -22h-219v-209h353v-86z" />
    <glyph glyph-name="uni3114" unicode="&#x3114;" 
d="M675 711q-231 -188 -442 -260l-48 78q229 80 429 249zM903 585q-137 -140 -302 -250v-382h-90v318q-145 -89 -334 -169l-56 79q402 147 722 472z" />
    <glyph glyph-name="uni3115" unicode="&#x3115;" 
d="M904 461q0 -32 -25 -56q-26 -24 -59 -24h-468q-14 -143 -46 -226q-38 -101 -123 -189l-63 71q83 89 117 201q23 81 32 230h504q38 0 38 38v135q0 37 -38 37h-557v85h608q32 0 57 -22q23 -24 23 -56v-224z" />
    <glyph glyph-name="uni3116" unicode="&#x3116;" 
d="M862 62q0 -31 -24 -50q-25 -21 -57 -21h-550q-30 0 -50 23q-19 22 -19 54v607q0 31 24 51q25 20 57 20h550q30 0 50 -25q19 -24 19 -56v-603zM772 116v505q0 38 -38 38h-445q-37 0 -37 -38v-505q0 -38 37 -38h442q41 0 41 38zM668 305l-62 -73q-120 127 -254 218l49 72
q142 -97 267 -217z" />
    <glyph glyph-name="uni3117" unicode="&#x3117;" 
d="M897 753q2 -93 3 -186q-1 -143 -30 -222q-40 -107 -130 -107q-39 0 -132 20l-18 96q82 -26 123 -26q45 0 63 30q26 41 26 307h-362v-709h-92v709h-221v88h770z" />
    <glyph glyph-name="uni3118" unicode="&#x3118;" 
d="M909 534h-471q-23 -44 -88 -161h422l65 -68q-38 -143 -101 -221q-70 -88 -199 -135l-49 90q104 26 161 86q51 55 88 165h-478l-30 56q57 96 105 188h-219v86h264q49 100 77 171l86 -31q-19 -41 -65 -140h432v-86z" />
    <glyph glyph-name="uni3119" unicode="&#x3119;" 
d="M910 40l-83 -41l-54 114q-296 -43 -617 -101l-42 73q219 328 353 667l88 -36q-109 -271 -310 -599q93 19 480 79q-35 61 -74 127l78 46q105 -165 181 -329z" />
    <glyph glyph-name="uni311A" unicode="&#x311a;" 
d="M906 684q-170 -155 -363 -320v-407h-93v407q-178 205 -332 335l68 61q154 -139 320 -317q160 139 336 309z" />
    <glyph glyph-name="uni311B" unicode="&#x311b;" 
d="M918 648h-337v-229l-62 -59q-61 4 -74 4q-73 0 -122 -38q-52 -41 -52 -109q0 -71 72 -112q65 -37 157 -37q214 0 290 245l77 -47q-98 -288 -361 -288q-130 0 -221 52q-110 64 -110 181q0 127 94 190q80 52 217 52v195h-380v86h812v-86z" />
    <glyph glyph-name="uni311C" unicode="&#x311c;" 
d="M921 545h-337v-155l-78 -63q-223 3 -223 -140q0 -71 71 -109q61 -34 149 -34q111 0 173 52q57 48 91 160l84 -43q-83 -260 -341 -260q-128 0 -216 53q-107 62 -107 181q0 99 76 158q76 60 226 70v130h-386v86h386v160h95v-160h337v-86z" />
    <glyph glyph-name="uni311D" unicode="&#x311d;" 
d="M911 447h-184v-235h-94v235h-260v-351q0 -37 38 -37h452v-90h-513q-29 0 -51 20q-20 21 -20 50v408h-166v85h166v232h94v-232h260v232h94v-232h184v-85z" />
    <glyph glyph-name="uni311E" unicode="&#x311e;" 
d="M911 678h-254q-17 -98 -51 -218h191l61 -55q-20 -221 -90 -440l-90 30q60 172 89 379h-188q-120 -317 -384 -403l-56 80q127 41 209 119q78 75 135 204h-243l-61 70q48 143 70 234h-136v85h798v-85zM568 678h-228q-39 -144 -62 -218h236q29 93 54 218z" />
    <glyph glyph-name="uni311F" unicode="&#x311f;" 
d="M915 41l-87 -57q-123 154 -206 317q-78 158 -136 359l-353 -85l-24 89l446 105q56 -225 134 -388q87 -182 226 -340z" />
    <glyph glyph-name="uni3120" unicode="&#x3120;" 
d="M906 32l-92 -40q-17 38 -45 106q-344 -60 -606 -115l-45 89q198 126 393 340q-222 -31 -345 -53l-48 77q163 164 291 342l73 -57q-110 -137 -223 -262q156 21 322 36q99 122 156 204l75 -56q-210 -283 -494 -536q159 30 411 71l-54 105l83 42q82 -138 148 -293z" />
    <glyph glyph-name="uni3121" unicode="&#x3121;" 
d="M906 69l-72 -77q-110 121 -267 242q-97 -95 -192 -147q-95 -50 -227 -74l-30 84q231 49 378 190q-138 88 -330 169l45 78q170 -71 347 -179q83 105 168 301h-551v86h585l68 -72q-97 -239 -196 -363q154 -119 274 -238z" />
    <glyph glyph-name="uni3122" unicode="&#x3122;" 
d="M910 359q-28 -148 -91 -242q-67 -102 -191 -169l-71 79q218 95 242 302h-563l-33 65q60 152 100 271h-189v85h622l52 -74q-25 -68 -101 -262h148zM686 665h-285l-89 -251h277q41 97 97 251z" />
    <glyph glyph-name="uni3123" unicode="&#x3123;" 
d="M900 404q-61 -286 -160 -455l-96 40q100 146 151 392h-629l-42 54q85 149 149 322l94 -20q-60 -161 -117 -271h585z" />
    <glyph glyph-name="uni3124" unicode="&#x3124;" 
d="M910 491h-308v-384q0 -37 37 -37h241v-89h-299q-30 0 -51 20q-20 20 -20 50v386q-64 -172 -129 -272q-77 -116 -199 -205l-68 76q230 145 318 455h-313v87h335q18 93 25 189l96 -10q-8 -64 -23 -169l-2 -10h360v-87z" />
    <glyph glyph-name="uni3125" unicode="&#x3125;" 
d="M894 8h-734l-30 70q265 321 401 652l86 -33q-148 -328 -354 -601h631v-88z" />
    <glyph glyph-name="uni3126" unicode="&#x3126;" 
d="M908 -24h-281q-33 0 -53 27q-17 25 -17 60v692h93v-651q0 -38 38 -38h220v-90zM373 755q0 -285 -15 -429q-11 -115 -50 -200q-37 -79 -115 -170l-77 54q70 71 105 144q33 70 46 172q13 97 13 429h93z" />
    <glyph glyph-name="uni3127" unicode="&#x3127;" 
d="M465 -27v780h94v-780h-94z" />
    <glyph glyph-name="uni3128" unicode="&#x3128;" 
d="M897 51l-70 -65q-163 183 -303 328q-164 -167 -333 -328l-64 69q158 143 335 323q-171 173 -316 311l67 62q131 -126 311 -308q150 154 283 308l66 -65q-122 -139 -286 -309q168 -172 310 -326z" />
    <glyph glyph-name="uni3129" unicode="&#x3129;" 
d="M869 80q0 -31 -28 -50q-29 -19 -63 -19h-547q-30 0 -53 19q-23 21 -23 50v635h93v-580q0 -38 39 -38h452q38 0 38 38v580h92v-635z" />
    <glyph glyph-name="uni3220" unicode="&#x3220;" 
d="M175 412q69 -7 136 -7h392q69 0 137 7q-4 -24 -4 -48t4 -47q-68 7 -137 7h-392q-67 0 -136 -7q4 23 4 47t-4 48zM1009 370q0 -136 -56 -264q-55 -128 -153 -226l-58 67q84 84 131 196q48 110 48 227t-48 230q-47 109 -131 194l58 67q98 -99 153 -227q56 -128 56 -264z
M281 -53l-57 -67q-98 98 -153 226q-57 128 -57 264t57 264q55 128 153 227l57 -67q-83 -85 -130 -194q-48 -113 -48 -230t48 -227q47 -112 130 -196z" />
    <glyph glyph-name="uni3221" unicode="&#x3221;" 
d="M263 632q67 -8 132 -8h233q65 0 132 8q-4 -23 -4 -48q0 -21 4 -44q-67 8 -132 8h-233q-65 0 -132 -8q4 23 4 44q0 25 -4 48zM191 200q68 -8 137 -8h371q69 0 137 8q-5 -23 -5 -48q0 -24 5 -47q-68 7 -137 7h-371q-69 0 -137 -7q5 23 5 47q0 25 -5 48zM1009 370
q0 -136 -56 -264q-55 -128 -153 -226l-58 67q84 84 131 196q48 110 48 227t-48 230q-47 109 -131 194l58 67q98 -99 153 -227q56 -128 56 -264zM281 -53l-57 -67q-98 98 -153 226q-57 128 -57 264t57 264q55 128 153 227l57 -67q-83 -85 -130 -194q-48 -113 -48 -230
t48 -227q47 -112 130 -196z" />
    <glyph glyph-name="uni3222" unicode="&#x3222;" 
d="M231 672q67 -7 133 -7h291q67 0 132 7q-4 -23 -4 -48q0 -22 4 -44q-65 8 -132 8h-291q-66 0 -133 -8q5 22 5 44q0 25 -5 48zM280 420q65 -8 132 -8h199q67 0 132 8q-4 -23 -4 -48q0 -21 4 -44q-65 8 -132 8h-199q-67 0 -132 -8q4 23 4 44q0 25 -4 48zM200 156
q65 -8 132 -8h359q67 0 132 8q-4 -24 -4 -48q0 -22 4 -44q-65 8 -132 8h-359q-67 0 -132 -8q4 22 4 44q0 24 -4 48zM1009 370q0 -136 -56 -264q-55 -128 -153 -226l-58 67q84 84 131 196q48 110 48 227t-48 230q-47 109 -131 194l58 67q98 -99 153 -227q56 -128 56 -264z
M281 -53l-57 -67q-98 98 -153 226q-57 128 -57 264t57 264q55 128 153 227l57 -67q-83 -85 -130 -194q-48 -113 -48 -230t48 -227q47 -112 130 -196z" />
    <glyph glyph-name="uni3223" unicode="&#x3223;" 
d="M198 690q-27 -42 -47 -90q-48 -113 -48 -230t48 -227q20 -48 47 -91q6 52 6 104v436q0 49 -6 98zM210 34q31 -47 71 -87l-57 -67q-98 98 -153 226q-57 128 -57 264t57 264q55 128 153 227l57 -67q-40 -41 -72 -87q57 -6 115 -6h375q58 0 115 6q-32 46 -72 87l58 67
q98 -99 153 -227q56 -128 56 -264t-56 -264q-55 -128 -153 -226l-58 67q41 42 74 90q-26 3 -37 3t-47 -4q4 38 6 76h-453q2 -40 7 -80q-36 4 -48 4q-10 0 -34 -2zM826 53q27 43 47 90q48 110 48 227t-48 230q-20 48 -48 90q-6 -49 -6 -98v-432q0 -54 7 -107zM284 185h455
v443h-128v-271q0 -37 36 -37q30 0 88 12q-23 -33 -23 -76q-32 -3 -65 -4q-107 0 -107 76v300h-72v-124q0 -80 -25 -143q-29 -72 -92 -132q-35 20 -67 28v-72zM284 270q69 55 91 116q20 58 20 118v124h-111v-358z" />
    <glyph glyph-name="uni3224" unicode="&#x3224;" 
d="M215 684q63 -8 125 -8h340q61 0 124 8q-4 -21 -4 -44q0 -21 4 -44q-63 9 -124 9h-162l-20 -153h122q56 0 112 4q-6 -21 -9 -54l-25 -278h1q63 0 124 8q-4 -22 -4 -44q0 -20 4 -39q29 44 50 94q48 110 48 227t-48 230q-47 109 -131 194l58 67q98 -99 153 -227
q56 -128 56 -264t-56 -264q-55 -128 -153 -226l-58 67q44 45 79 97q-61 9 -122 9h-384q-57 0 -113 -8q35 -53 79 -98l-57 -67q-98 98 -153 226q-57 128 -57 264t57 264q55 128 153 227l57 -67q-83 -85 -130 -194q-48 -113 -48 -230t48 -227q18 -44 43 -84q2 14 2 29
q0 22 -5 44q63 -8 124 -8h58l35 256h-40q-57 0 -112 -8q3 23 3 44q0 23 -3 44q55 -8 112 -8h50l20 153h-98q-62 0 -125 -9q4 23 4 44q0 23 -4 44zM453 124h170l21 256h-157z" />
    <glyph glyph-name="uni3225" unicode="&#x3225;" 
d="M516 724q24 -73 64 -159q-40 -8 -80 -29q-17 78 -61 169q41 4 77 19zM179 529q67 -8 132 -8h401q65 0 132 8q-4 -25 -4 -48t4 -44q-67 8 -132 8h-401q-65 0 -132 -8q4 21 4 44t-4 48zM403 380q38 -18 93 -31q-30 -30 -43 -62q-70 -145 -178 -274q-25 29 -71 51
q87 79 137 165q45 73 62 151zM615 380q72 -153 189 -316q-45 -9 -84 -44q-81 185 -184 324q48 12 79 36zM1009 370q0 -136 -56 -264q-55 -128 -153 -226l-58 67q84 84 131 196q48 110 48 227t-48 230q-47 109 -131 194l58 67q98 -99 153 -227q56 -128 56 -264zM281 -53
l-57 -67q-98 98 -153 226q-57 128 -57 264t57 264q55 128 153 227l57 -67q-83 -85 -130 -194q-48 -113 -48 -230t48 -227q47 -112 130 -196z" />
    <glyph glyph-name="uni3226" unicode="&#x3226;" 
d="M823 525q0 -51 17 -97q-183 -20 -348 -56v-240q0 -35 31 -35h136q48 0 68 21q21 18 21 98q27 -33 83 -48q-15 -84 -35 -107q-31 -41 -116 -41h-193q-78 0 -79 56v279q-112 -24 -225 -55q0 53 -11 97q129 15 236 33v198q0 42 -9 84q57 -7 113 -7q-20 -24 -20 -52v-206h3
q181 35 328 78zM1009 370q0 -136 -56 -264q-55 -128 -153 -226l-58 67q84 84 131 196q48 110 48 227t-48 230q-47 109 -131 194l58 67q98 -99 153 -227q56 -128 56 -264zM281 -53l-57 -67q-98 98 -153 226q-57 128 -57 264t57 264q55 128 153 227l57 -67q-83 -85 -130 -194
q-48 -113 -48 -230t48 -227q47 -112 130 -196z" />
    <glyph glyph-name="uni3227" unicode="&#x3227;" 
d="M387 680q47 -15 92 -19q-10 -34 -15 -77q-23 -215 -58 -301q-33 -100 -150 -234q-30 33 -81 67q91 67 132 149q38 63 61 191q15 88 19 224zM527 680q35 -7 84 -8q-11 -35 -11 -59q0 -100 12 -179q19 -94 56 -155q34 -57 83 -95q32 -29 93 -60q-45 -16 -84 -63
q-73 60 -112 113q-69 90 -97 219q-24 118 -24 287zM1009 370q0 -136 -56 -264q-55 -128 -153 -226l-58 67q84 84 131 196q48 110 48 227t-48 230q-47 109 -131 194l58 67q98 -99 153 -227q56 -128 56 -264zM281 -53l-57 -67q-98 98 -153 226q-57 128 -57 264t57 264
q55 128 153 227l57 -67q-83 -85 -130 -194q-48 -113 -48 -230t48 -227q47 -112 130 -196z" />
    <glyph glyph-name="uni3228" unicode="&#x3228;" 
d="M219 540q65 -4 125 -4h54q6 66 10 144v69q60 -12 104 -12q-18 -40 -23 -86q-4 -62 -9 -115h120q38 0 76 4l-32 -403q0 -36 55 -36q35 0 44 12q11 13 25 91q28 -27 80 -52q-40 -107 -72 -115q-35 -13 -77 -13q-62 0 -98 16q-38 22 -38 61l25 355h-117q-21 -165 -55 -234
q-43 -109 -157 -218q-28 41 -72 68q112 70 160 203q27 65 42 181h-45q-58 0 -125 -4q4 25 4 44q0 26 -4 44zM1009 370q0 -136 -56 -264q-55 -128 -153 -226l-58 67q84 84 131 196q48 110 48 227t-48 230q-47 109 -131 194l58 67q98 -99 153 -227q56 -128 56 -264zM281 -53
l-57 -67q-98 98 -153 226q-57 128 -57 264t57 264q55 128 153 227l57 -67q-83 -85 -130 -194q-48 -113 -48 -230t48 -227q47 -112 130 -196z" />
    <glyph glyph-name="uni3229" unicode="&#x3229;" 
d="M160 452q65 -7 132 -7h176v151q0 67 -8 132q43 -4 103 -4q-15 -31 -15 -80v-199h168q65 0 132 7q-4 -24 -4 -47t4 -44q-67 7 -132 7h-168v-212q0 -76 8 -152q-25 5 -48 5q-25 0 -48 -5q8 76 8 152v212h-176q-67 0 -132 -7q4 21 4 44t-4 47zM1009 370q0 -136 -56 -264
q-55 -128 -153 -226l-58 67q84 84 131 196q48 110 48 227t-48 230q-47 109 -131 194l58 67q98 -99 153 -227q56 -128 56 -264zM281 -53l-57 -67q-98 98 -153 226q-57 128 -57 264t57 264q55 128 153 227l57 -67q-83 -85 -130 -194q-48 -113 -48 -230t48 -227
q47 -112 130 -196z" />
    <glyph glyph-name="uni4E00" unicode="&#x4e00;" 
d="M72 460q80 -7 159 -7h552q80 0 160 7q-4 -27 -4 -55q0 -27 4 -52q-80 8 -160 8h-552q-79 0 -159 -8q4 25 4 52q0 28 -4 55z" />
    <glyph glyph-name="uni4E01" unicode="&#x4e01;" 
d="M43 793q73 -8 144 -8h636q73 0 145 8q-4 -27 -4 -52t4 -48q-72 8 -145 8h-252v-724q0 -40 -47 -58q-44 -19 -177 -19q-2 64 -36 113q83 -13 128 -13q38 0 40 25v676h-292q-71 0 -144 -8q4 23 4 48t-4 52z" />
    <glyph glyph-name="uni4E03" unicode="&#x4e03;" 
d="M955 588q0 -56 17 -107q-250 -29 -480 -78v-331q0 -44 31 -44h252q45 0 65 28q19 24 19 129q32 -39 96 -57q-16 -106 -37 -137q-31 -50 -118 -50h-313q-86 0 -88 68v375q-168 -34 -336 -79q0 58 -12 107q194 24 348 51v289q0 46 -8 92q61 -11 121 -11q-20 -24 -20 -52
v-301q5 1 8 2q251 48 455 106z" />
    <glyph glyph-name="uni4E07" unicode="&#x4e07;" 
d="M103 749q68 -8 137 -8h600q67 0 136 8q-4 -25 -4 -48q0 -25 4 -48q-69 8 -136 8h-380v-176h271q61 0 121 8q-13 -44 -16 -100l-21 -344q-6 -85 -73 -111q-47 -20 -150 -30q0 53 -40 113q72 -17 99 -17q50 0 69 33q11 22 11 56l21 316h-295q-6 -72 -23 -147
q-33 -126 -86 -205q-50 -85 -196 -160q-39 49 -93 80q143 40 206 116q58 73 82 181q25 101 25 189v198h-132q-69 0 -137 -8q5 23 5 48q0 23 -5 48z" />
    <glyph glyph-name="uni4E08" unicode="&#x4e08;" 
d="M80 632q72 -8 143 -8h321v152q0 44 -8 72q58 -8 115 -8q-19 -29 -19 -65v-151h164q71 0 143 8q-3 -25 -3 -51q0 -25 3 -48q-72 7 -143 7h-164q0 -259 -83 -393q68 -53 146 -80q112 -39 288 -39q-62 -67 -80 -120q-204 57 -339 136q-32 21 -60 44q-95 -95 -396 -191
q-30 54 -72 87q307 76 395 167q-48 47 -90 101q-35 44 -126 168q52 20 92 57q53 -126 154 -242q9 -11 17 -21q66 116 66 326h-321q-71 0 -143 -7q4 23 4 48q0 26 -4 51z" />
    <glyph glyph-name="uni4E09" unicode="&#x4e09;" 
d="M143 760q76 -8 153 -8h431q77 0 153 8q-4 -25 -4 -51q0 -27 4 -52q-76 8 -153 8h-431q-77 0 -153 -8q4 25 4 52q0 26 -4 51zM212 424q72 -8 143 -8h321q72 0 143 8q-4 -25 -4 -52q0 -23 4 -47q-71 7 -143 7h-321q-71 0 -143 -7q3 24 3 47q0 27 -3 52zM68 76q75 -7 151 -7
h585q76 0 151 7q-4 -25 -4 -51q0 -27 4 -52q-75 8 -151 8h-585q-76 0 -151 -8q4 25 4 52q0 26 -4 51z" />
    <glyph glyph-name="uni4E0A" unicode="&#x4e0a;" 
d="M416 848q52 -18 124 -19q-21 -34 -21 -88v-208h237q59 0 128 4q-4 -24 -4 -44q0 -28 4 -48q-46 4 -128 4h-237v-409h300q77 0 153 9q-4 -26 -4 -53q0 -25 4 -52q-76 8 -153 8h-623q-76 0 -153 -8q4 27 4 52q0 27 -4 53q77 -9 153 -9h228v701q0 54 -8 107z" />
    <glyph glyph-name="uni4E0B" unicode="&#x4e0b;" 
d="M51 768q73 -8 145 -8h631q72 0 145 8q-4 -25 -4 -52q0 -23 4 -48q-73 8 -145 8h-300v-640q0 -74 9 -147q-28 4 -57 4q-25 0 -52 -4q8 73 8 147v640h-239q-72 0 -145 -8q4 25 4 48q0 27 -4 52zM636 516q108 -109 288 -251q-42 -28 -76 -80q-39 54 -120 132
q-84 80 -157 128q38 27 65 71z" />
    <glyph glyph-name="uni4E0C" unicode="&#x4e0c;" 
d="M51 745q73 -8 145 -8h627q73 0 145 8q-4 -27 -4 -52t4 -49q-72 9 -145 9h-115v-588q0 -75 8 -149q-29 5 -57 5q-25 0 -52 -5q8 74 8 149v588h-207v-340q-4 -149 -57 -233q-36 -70 -168 -176q-57 42 -111 56q139 69 190 149q57 76 57 204v340h-123q-72 0 -145 -9
q4 24 4 49t-4 52z" />
    <glyph glyph-name="uni4E0D" unicode="&#x4e0d;" 
d="M80 781q72 -9 143 -9h588q73 0 144 9q-4 -27 -4 -53q0 -23 4 -48q-71 9 -144 9h-169q-37 -67 -79 -130v-487q0 -84 8 -168q-25 4 -52 4q-25 0 -51 -4q7 84 7 168v366q-147 -187 -340 -333q-34 44 -88 88q290 152 497 496h-321q-71 0 -143 -9q4 25 4 48q0 26 -4 53z
M716 504q18 -27 67 -83q79 -84 129 -151q34 -46 71 -89q-36 -10 -99 -44q-25 58 -94 148q-78 100 -162 168q52 20 88 51z" />
    <glyph glyph-name="uni4E0E" unicode="&#x4e0e;" 
d="M256 844q51 -14 116 -19q-25 -24 -25 -57v-63h468q58 0 124 4q-3 -24 -3 -44q0 -26 3 -44q-44 3 -124 3h-468v-168h428q42 0 84 4q-7 -42 -7 -95v-329q-2 -79 -109 -112q-77 -24 -140 -24q-15 69 -32 100q44 -4 72 -4q39 0 76 13q45 16 45 52v315h-424q-42 0 -84 -4
q3 37 3 73v340q0 29 -3 59zM72 233q67 -8 136 -8h351q69 0 136 8q-4 -25 -4 -48q0 -25 4 -48q-67 8 -136 8h-351q-69 0 -136 -8q4 23 4 48q0 23 -4 48z" />
    <glyph glyph-name="uni4E10" unicode="&#x4e10;" 
d="M51 796q69 -7 136 -7h649q67 0 136 7q-4 -24 -4 -47q0 -25 4 -48q-69 8 -136 8h-288v-144h216q53 0 116 4q-4 -22 -4 -40q0 -26 4 -44q-42 4 -116 4h-216v-168h260q51 0 103 4q-15 -54 -16 -84l-24 -176q-9 -78 -49 -105q-37 -27 -207 -48q-9 66 -35 120q38 -4 71 -4
q62 0 89 12q40 18 43 53l25 151h-560q-54 0 -109 -7q25 180 25 271q0 46 -4 92q52 -10 120 -12q-24 -31 -33 -72q-9 -32 -16 -195h233v388h-277q-67 0 -136 -8q4 23 4 48q0 23 -4 47z" />
    <glyph glyph-name="uni4E11" unicode="&#x4e11;" 
d="M152 796q61 -7 123 -7h420q69 0 136 4q-10 -47 -16 -120l-44 -645h48q69 0 136 8q-4 -23 -4 -48q0 -23 4 -47q-67 7 -136 7h-619q-69 0 -137 -7q5 24 5 47q0 25 -5 48q68 -8 137 -8h162l28 321h-98q-58 0 -124 -5q3 24 3 44q0 25 -3 45q63 -5 124 -5h105l24 281h-146
q-62 0 -123 -8q4 23 4 48q0 23 -4 47zM451 28h228l21 321h-222zM485 428h221l18 281h-215z" />
    <glyph glyph-name="uni4E13" unicode="&#x4e13;" 
d="M147 709q68 -8 137 -8h120q23 90 31 147q41 -12 113 -19q-30 -46 -56 -128h235q69 0 136 8q-4 -25 -4 -48q0 -25 4 -48q-67 8 -136 8h-259q-19 -71 -40 -132h380q68 0 135 7q-4 -24 -4 -47q0 -25 4 -48q-67 8 -135 8h-407q-19 -54 -37 -100h344q60 0 119 8q-4 -23 -4 -44
q0 -29 4 -57q-56 -13 -266 -160q89 -31 203 -72q-36 -34 -69 -84q-67 41 -188 90q-122 47 -267 79q22 39 35 76q54 -20 109 -33q66 -17 109 -32l198 160h-144q-155 0 -267 -24q-5 57 -28 97q36 13 46 25q8 13 27 71h-129q-68 0 -137 -8q4 23 4 48q0 23 -4 47q69 -7 137 -7
h152l2 8q20 68 34 124h-100q-69 0 -137 -8q5 23 5 48q0 23 -5 48z" />
    <glyph glyph-name="uni4E14" unicode="&#x4e14;" 
d="M223 817q55 -5 109 -5h359q54 0 109 5q-4 -47 -4 -93v-703h31q72 0 145 7q-4 -26 -4 -51t4 -48q-73 8 -145 8h-636q-71 0 -144 -8q4 23 4 48t-4 51q73 -7 144 -7h36v703q0 46 -4 93zM324 21h375v187h-375v-187zM324 292h375v172h-375v-172zM324 548h375v176h-375v-176z
" />
    <glyph glyph-name="uni4E15" unicode="&#x4e15;" 
d="M76 781q71 -9 143 -9h589q72 0 143 9q-4 -27 -4 -53q0 -23 4 -48q-71 9 -143 9h-216q-10 -19 -21 -34v-378q0 -88 9 -176q-28 4 -57 4q-25 0 -52 -4q8 88 8 176v245q-144 -190 -340 -333q-30 40 -80 80q257 130 444 420h-284q-72 0 -143 -9q4 25 4 48q0 26 -4 53z
M691 525q121 -113 264 -233q-39 -26 -75 -80q-126 141 -265 244q44 34 76 69zM51 53q73 -9 145 -9h631q72 0 145 9q-4 -26 -4 -53q0 -23 4 -48q-73 8 -145 8h-631q-72 0 -145 -8q4 25 4 48q0 27 -4 53z" />
    <glyph glyph-name="uni4E16" unicode="&#x4e16;" 
d="M28 573q71 -8 143 -8h12v84q0 71 -8 144q57 -12 117 -12q-17 -42 -17 -132v-84h141v216q0 33 -8 67q51 -12 111 -15q-15 -34 -15 -65v-203h172v199q0 34 -8 69q46 -6 111 -8q-15 -35 -15 -80v-180h72q71 0 144 8q-4 -27 -4 -52t4 -49q-73 9 -144 9h-72v-241q0 -42 4 -84
q-39 4 -77 4h-195q-44 0 -88 -4q8 41 8 81v244h-141v-437h416q103 0 205 9q-4 -26 -4 -53q0 -25 4 -52q-102 8 -205 8h-323q-95 0 -189 -8q4 71 4 128v405h-12q-72 0 -143 -9q4 24 4 49t-4 52zM504 481v-241h172v241h-172z" />
    <glyph glyph-name="uni4E18" unicode="&#x4e18;" 
d="M787 716q-42 0 -172 -14q-168 -23 -296 -26v-172h452q64 0 136 4q-4 -25 -4 -48q0 -27 4 -48q-48 4 -136 4h-80v-347h124q77 0 153 7q-4 -25 -4 -51q0 -27 4 -52q-76 8 -153 8h-615q-76 0 -153 -8q4 25 4 52q0 26 -4 51q77 -7 153 -7h23v588q0 53 -4 107q52 -4 105 -4
q166 2 290 17q101 9 205 48q23 -75 61 -116q-58 7 -93 7zM319 69h280v347h-280v-347z" />
    <glyph glyph-name="uni4E19" unicode="&#x4e19;" 
d="M55 817q69 -9 136 -9h636q69 0 137 9q-5 -24 -5 -49q0 -23 5 -48q-68 8 -137 8h-255q-5 -21 -7 -42q-4 -59 -10 -109h213q68 0 135 7q-7 -49 -7 -99v-453q0 -75 -28 -97q-29 -24 -181 -42q-9 65 -47 116q65 -9 84 -9q55 0 70 11q10 7 10 42v443h-258q-9 -69 -21 -118
q15 -13 29 -22q52 -39 80 -66q53 -51 126 -122q-35 -33 -69 -84q-34 59 -96 130q-44 50 -93 85q-5 -14 -12 -25q-44 -105 -158 -209q-30 43 -76 72q113 64 162 189q26 61 42 170h-245v-508q0 -47 8 -95q-27 4 -55 4q-27 0 -52 -4q8 48 8 95v497q0 50 -8 99q59 -7 120 -7h234
q6 59 9 128v23h-288q-67 0 -136 -8q4 25 4 48q0 25 -4 49z" />
    <glyph glyph-name="uni4E1A" unicode="&#x4e1a;" 
d="M204 644l124 -415q-57 -8 -105 -25q-45 260 -111 420q41 2 92 20zM364 840q49 -14 115 -15q-19 -30 -19 -80v-709h111v709q0 48 -8 95q49 -14 117 -15q-21 -30 -21 -80v-709h164q69 0 136 8q-4 -23 -4 -48q0 -23 4 -48q-67 8 -136 8h-623q-69 0 -137 -8q5 25 5 48
q0 25 -5 48q68 -8 137 -8h172v709q0 48 -8 95zM823 649q55 -23 109 -28q-46 -86 -157 -440q-45 24 -92 31q88 195 140 437z" />
    <glyph glyph-name="uni4E1B" unicode="&#x4e1b;" 
d="M256 840q68 -13 112 -15q-25 -48 -25 -101q0 -135 -15 -275l-2 -14q76 -73 182 -183q-44 -19 -88 -52q-26 49 -108 149q-22 -111 -65 -176q-25 -49 -119 -141q-36 51 -88 77q83 37 130 115q57 98 75 243q15 117 18 270q0 50 -7 103zM615 837q57 -15 128 -16
q-27 -50 -27 -120q0 -113 14 -211q22 -148 78 -242q47 -76 164 -136q-58 -35 -96 -91q-83 67 -130 160q-50 95 -78 283q-24 -155 -63 -246q-43 -102 -149 -197q-42 45 -97 72q83 47 128 100q55 59 85 142q32 83 43 200q9 94 9 166q0 67 -9 136zM51 13q69 -9 136 -9h632
q69 0 136 9q-4 -25 -4 -48q0 -24 4 -49q-67 9 -136 9h-632q-67 0 -136 -9q4 25 4 49q0 23 -4 48z" />
    <glyph glyph-name="uni4E1C" unicode="&#x4e1c;" 
d="M47 709q67 -8 132 -8h195q26 63 53 143q69 -18 157 -27q-68 -30 -106 -104q-3 -7 -6 -12h359q66 0 133 8q-5 -25 -5 -48t5 -44q-67 7 -133 7h-401q-74 -127 -167 -227h241v75q0 42 -4 84q56 -8 120 -8q-28 -38 -28 -88v-63h200q53 0 115 4q-4 -23 -4 -44q0 -18 4 -40
q-62 4 -115 4h-200v-333q0 -72 -48 -83q-62 -20 -141 -20q-8 66 -31 111q52 -12 71 -12q61 0 61 48v289h-237q-55 0 -124 -4q-10 38 -19 71q46 21 87 56q41 34 87 105q20 33 41 75h-160q-65 0 -132 -7q4 21 4 44t-4 48zM315 252q45 -46 88 -71q-120 -70 -243 -229
q-39 48 -92 76q128 53 247 224zM752 237q75 -100 220 -205q-46 -25 -88 -72q-83 128 -220 221q50 19 88 56z" />
    <glyph glyph-name="uni4E1D" unicode="&#x4e1d;" 
d="M303 844l92 -59q-36 -27 -62 -73q-109 -187 -150 -235l191 41q43 66 53 103l100 -65q-50 -28 -87 -78q-151 -205 -209 -257l248 31q-8 -40 -8 -80q-206 -14 -351 -44l-21 109q72 22 113 69q69 79 111 138q-138 -21 -239 -51l-21 100q53 20 83 63q71 105 106 170
q42 79 51 118zM724 844l91 -59q-36 -28 -62 -75q-109 -192 -150 -242l167 34q56 84 70 126l99 -63q-50 -29 -87 -79q-154 -205 -212 -257l303 31q-7 -39 -7 -79q-240 -15 -409 -44l-19 107q72 23 114 70q55 63 94 113q-121 -16 -212 -43l-21 101q53 21 83 64q71 108 106 175
q42 80 52 120zM59 49q69 -9 137 -9h635q68 0 137 9q-4 -24 -4 -49q0 -23 4 -48q-69 8 -137 8h-635q-68 0 -137 -8q4 25 4 48q0 25 -4 49z" />
    <glyph glyph-name="uni4E1E" unicode="&#x4e1e;" 
d="M152 793q56 -8 111 -8h480q63 0 124 8q-4 -25 -4 -48q0 -29 4 -56q-44 -4 -70 -14q-37 -12 -227 -106q30 -98 80 -168q88 69 173 164q30 -46 80 -76q-45 -17 -215 -135l3 -3q71 -83 289 -151q-55 -37 -81 -95q-194 109 -263 195q-45 51 -81 136v-268q0 -52 -29 -75
q-23 -22 -135 -28q-7 47 -44 103q43 -8 65 -8q56 0 56 29v407l231 109h-436q-55 0 -111 -8q4 23 4 48q0 23 -4 48zM76 552q57 -8 115 -8h156q48 0 96 8q-63 -243 -124 -321q-56 -80 -207 -155q-35 65 -65 84q131 35 187 93q59 61 102 215h-145q-58 0 -115 -8q4 25 4 48
t-4 44zM51 40q73 -8 145 -8h627q73 0 145 8q-4 -25 -4 -52q0 -23 4 -47q-72 7 -145 7h-627q-72 0 -145 -7q4 24 4 47q0 27 -4 52z" />
    <glyph glyph-name="uni4E22" unicode="&#x4e22;" 
d="M836 737q-276 -35 -676 -48q-17 61 -32 92q63 -13 128 -13q156 0 326 16q124 9 262 49q21 -62 52 -109q-39 13 -60 13zM152 569q65 -8 132 -8h187v44q0 48 -7 96q48 -15 116 -17q-21 -29 -21 -79v-44h172q67 0 132 8q-4 -25 -4 -48t4 -44q-65 8 -132 8h-172v-145h289
q65 0 132 9q-4 -24 -4 -49q0 -21 4 -44q-67 9 -132 9h-407q46 -28 103 -53q-68 -42 -128 -94q-70 -60 -141 -101q210 10 437 20q-61 71 -124 119q52 22 88 52q15 -22 58 -67q68 -69 112 -124q30 -37 61 -73q-36 -9 -99 -44q-13 30 -41 68q-402 -8 -588 -47l-23 111
q87 23 147 77q52 44 119 156h-247q-65 0 -132 -9q4 23 4 44q0 25 -4 49q67 -9 132 -9h296v145h-187q-67 0 -132 -8q4 21 4 44t-4 48z" />
    <glyph glyph-name="uni4E24" unicode="&#x4e24;" 
d="M59 793q67 -8 132 -8h649q65 0 132 8q-4 -25 -4 -48t4 -44q-67 8 -132 8h-158q-1 -100 -3 -165h96q65 0 128 8q-7 -48 -7 -96v-428q0 -69 -25 -89q-27 -22 -163 -39q-10 64 -44 113q62 -13 79 -13q45 0 57 11q8 7 8 42v415h-132q-1 -25 -2 -40q-5 -62 -14 -110
q58 -63 136 -154q-38 -16 -76 -44q-19 42 -76 123q-1 -4 -2 -7q-27 -91 -90 -196q-30 43 -92 61q61 67 88 128q32 63 44 169q3 30 6 70h-152q-1 -13 -2 -21q-5 -56 -13 -99q43 -47 100 -111q-35 -17 -71 -44q-11 29 -46 86q-3 -8 -5 -14q-32 -85 -106 -185q-29 43 -91 61
q70 63 99 121q37 58 51 157q4 22 6 49h-156v-464q0 -46 7 -92q-25 4 -51 4q-27 0 -52 -4q8 46 8 92v452q0 48 -8 96q57 -8 115 -8h142q4 72 6 165h-188q-65 0 -132 -8q4 21 4 44t-4 48zM602 544q3 73 4 165h-151q-2 -101 -4 -165h151z" />
    <glyph glyph-name="uni4E25" unicode="&#x4e25;" 
d="M147 825q72 -8 145 -8h512q72 0 143 8q-4 -27 -4 -53q0 -23 4 -48q-71 9 -143 9h-109v-277h176q53 0 105 4q-4 -21 -4 -44t4 -48q-52 4 -105 4h-612v-112q-3 -102 -32 -190q-21 -73 -96 -177q-41 34 -99 40q69 71 102 143q37 96 37 184v80q0 61 -7 120q51 -4 103 -4h145
v277h-120q-73 0 -145 -9q5 25 5 48q0 26 -5 53zM492 456h123v277h-123v-277zM284 672q29 -65 80 -135q-45 -10 -84 -44q-34 82 -76 143q48 12 80 36zM811 672q38 -30 85 -48q-35 -30 -88 -131q-32 25 -77 40q36 35 80 139z" />
    <glyph glyph-name="uni4E27" unicode="&#x4e27;" 
d="M112 745q67 -8 136 -8h212v15q0 46 -8 92q47 -14 111 -15q-19 -29 -19 -77v-15h220q67 0 135 8q-3 -25 -3 -48q0 -25 3 -48q-68 8 -135 8h-220v-264h279q69 0 136 8q-4 -25 -4 -48q0 -25 4 -48q-67 8 -136 8h-303q37 -111 96 -168q78 57 155 136q28 -41 73 -69
q-41 -12 -184 -102q100 -66 316 -82q-46 -44 -73 -99q-245 56 -330 147q-84 81 -124 237h-134v-285q77 30 168 77q4 -42 21 -77q-150 -50 -277 -124q-24 43 -44 65q48 39 48 80v264h-31q-69 0 -137 -8q5 23 5 48q0 23 -5 48q68 -8 137 -8h260v264h-212q-69 0 -136 -8
q4 23 4 48q0 23 -4 48zM267 621q41 -77 109 -157q-45 -10 -84 -44q-46 94 -105 164q49 12 80 37zM724 628q37 -30 84 -47q-46 -38 -121 -161q-31 26 -76 40q49 42 113 168z" />
    <glyph glyph-name="uni4E28" unicode="&#x4e28;" 
d="M456 829q48 -4 115 -4q-16 -38 -16 -97v-648q0 -88 8 -176q-27 4 -55 4q-27 0 -52 -4q8 88 8 176v592q0 79 -8 157z" />
    <glyph glyph-name="uni4E2A" unicode="&#x4e2a;" 
d="M456 848q51 -35 111 -52q-13 -14 -27 -31q61 -108 161 -182q90 -67 263 -119q-45 -42 -72 -103q-167 82 -254 163q-85 71 -138 183q-112 -174 -190 -238q-69 -64 -186 -133q-28 42 -88 76q116 45 188 99q74 62 133 144q66 95 99 193zM443 512q51 -4 120 -4
q-15 -39 -15 -99v-333q0 -92 7 -183q-28 4 -55 4q-29 0 -57 -4q9 91 9 183v277q0 80 -9 159z" />
    <glyph glyph-name="uni4E2B" unicode="&#x4e2b;" 
d="M196 825q121 -120 268 -248q-38 -25 -73 -73q-126 148 -263 256q39 32 68 65zM796 825q53 -43 115 -69q-92 -46 -159 -119q-122 -121 -204 -188v-445q0 -54 4 -107q-27 3 -52 3q-27 0 -53 -3q5 53 5 107v489q99 54 203 158q100 101 141 174z" />
    <glyph glyph-name="uni4E2C" unicode="&#x4e2c;" 
d="M179 716q81 -99 185 -187q-31 -19 -72 -76q-79 114 -180 200q39 24 67 63zM387 829q48 -4 117 -4q-17 -38 -17 -97v-648q0 -88 9 -176q-28 4 -57 4q-25 0 -52 -4q8 88 8 176v207q-211 -125 -267 -186q-18 63 -60 111q112 29 327 158v302q0 79 -8 157z" />
    <glyph glyph-name="uni4E2D" unicode="&#x4e2d;" 
d="M91 657q71 -8 140 -8h221v44q0 73 -9 147q47 -3 112 -3q-15 -37 -15 -92v-96h228q70 0 139 8q-8 -65 -8 -128v-212q0 -69 8 -136q-39 4 -52 4q-12 0 -51 -4q4 35 5 71h-269v-183q0 -85 8 -169q-27 4 -52 4q-27 0 -53 -4q9 84 9 169v183h-263q1 -41 7 -80q-39 5 -53 5
q-13 0 -52 -5q8 68 8 137v220q0 63 -8 128zM187 332h265v237h-265v-237zM540 569v-237h271v237h-271z" />
    <glyph glyph-name="uni4E30" unicode="&#x4e30;" 
d="M128 689q72 -9 143 -9h193v9q0 77 -8 155q48 -4 115 -4q-16 -38 -16 -95v-65h201q71 0 143 9q-3 -26 -3 -53q0 -23 3 -48q-72 8 -143 8h-201v-140h157q67 0 136 8q-4 -23 -4 -48q0 -23 4 -48q-69 8 -136 8h-157v-128h241q71 0 143 8q-3 -25 -3 -52q0 -23 3 -48
q-72 8 -143 8h-241v-95q0 -88 8 -176q-27 4 -55 4q-27 0 -52 -4q8 88 8 176v95h-237q-71 0 -143 -8q3 25 3 48q0 27 -3 52q72 -8 143 -8h237v128h-149q-67 0 -136 -8q4 25 4 48q0 25 -4 48q69 -8 136 -8h149v140h-193q-71 0 -143 -8q3 25 3 48q0 27 -3 53z" />
    <glyph glyph-name="uni4E32" unicode="&#x4e32;" 
d="M160 724q76 -4 151 -4h152q0 65 -7 128q46 -4 111 -4q-15 -36 -15 -92v-32h151q76 0 152 4q-3 -40 -3 -80v-111q0 -46 3 -92q-76 4 -152 4h-151v-84h204q69 0 140 7q-8 -59 -8 -120v-80q0 -67 8 -136q-40 4 -52 4q-14 0 -52 -4q3 25 4 48h-244v-23q0 -84 7 -168
q-25 4 -51 4q-27 0 -52 -4q8 84 8 168v23h-250q2 -33 5 -63q-39 4 -51 4q-13 0 -52 -4q8 67 8 136v95q0 61 -8 120q69 -7 140 -7h208v84h-153q-75 0 -151 -4q4 46 4 92v111q-4 40 -4 80zM764 521v123h-212v-123h212zM464 521v123h-212v-123h212zM212 156h252v128h-252v-128z
M552 284v-128h248v128h-248z" />
    <glyph glyph-name="uni4E34" unicode="&#x4e34;" 
d="M76 724q46 -4 111 -4q-16 -36 -16 -92v-428q0 -84 8 -168q-25 4 -51 4q-27 0 -52 -4q8 84 8 168v377q0 74 -8 147zM252 817q47 -5 116 -5q-17 -37 -17 -96v-647q0 -88 8 -176q-27 4 -56 4q-25 0 -51 -4q7 88 7 176v592q0 78 -7 156zM580 840q55 -27 123 -36
q-51 -36 -83 -102l-15 -30h235q59 0 128 4q-4 -23 -4 -44q0 -27 4 -48q-46 4 -128 4h-278q-45 -85 -102 -172q-46 37 -105 48q75 52 138 165q39 70 87 211zM672 561q36 -61 96 -124q-43 -10 -81 -40q-40 72 -91 128q45 11 76 36zM431 380q71 -8 140 -8h221q69 0 140 8
q-8 -59 -8 -120v-220q0 -67 8 -136q-39 4 -52 4q-14 0 -53 -4q7 47 8 92h-307q2 -46 8 -92q-39 4 -53 4q-13 0 -52 -4q8 69 8 136v220q0 61 -8 120zM527 69h116v227h-116v-227zM720 69h116v227h-116v-227z" />
    <glyph glyph-name="uni4E36" unicode="&#x4e36;" 
d="M456 621q12 -28 46 -82q54 -81 89 -148q23 -45 49 -86q-35 -10 -96 -45q-17 58 -66 147q-53 98 -110 166q52 19 88 48z" />
    <glyph glyph-name="uni4E38" unicode="&#x4e38;" 
d="M179 628q65 -4 124 -4h92v94q0 52 -8 119q46 -8 117 -8q-21 -38 -21 -88v-117h200q42 0 85 4l-41 -571q0 -57 52 -57t65 16q15 15 36 108q28 -29 84 -55q-50 -124 -90 -134q-43 -14 -95 -14q-63 0 -101 21q-38 27 -38 75l28 527h-187q-6 -160 -31 -264q59 -36 121 -72
q-40 -39 -56 -76q-43 38 -89 71q-10 -26 -23 -48q-74 -128 -283 -251q-35 49 -88 77q234 117 298 232q10 19 19 42q-71 43 -149 81q32 29 56 65q55 -36 114 -72q18 88 23 215h-90q-57 0 -124 -4q4 25 4 44q0 26 -4 44z" />
    <glyph glyph-name="uni4E39" unicode="&#x4e39;" 
d="M252 837q49 -4 99 -4h344q50 0 101 4q-4 -62 -4 -125v-336h60q68 0 135 8q-4 -23 -4 -48q0 -23 4 -48q-67 8 -135 8h-60v-292q0 -51 -31 -75q-27 -22 -162 -36q-12 53 -47 91q75 -3 103 -3q48 0 48 36v279h-361q-5 -106 -37 -186q-52 -119 -145 -210q-46 28 -92 37
q117 99 149 185q33 73 38 174h-68q-67 0 -136 -8q4 25 4 48q0 25 -4 48q69 -8 136 -8h69v336q1 63 -4 125zM343 376h360v376h-360v-376zM531 672l68 -227q-49 -6 -91 -21q-24 144 -56 233q35 1 79 15z" />
    <glyph glyph-name="uni4E3A" unicode="&#x4e3a;" 
d="M332 796q36 -72 95 -147q-44 -11 -84 -44q-40 89 -91 155q48 12 80 36zM139 565q59 -9 117 -9h258q14 87 22 189q0 56 -5 84q73 -12 124 -12q-35 -51 -43 -108q-9 -82 -21 -153h232q53 0 105 5q-18 -51 -21 -108l-27 -440q-6 -62 -86 -84q-93 -22 -158 -25q0 55 -37 92
q42 -4 60 -4q85 0 119 23q22 18 22 38l27 428h-249q-43 -219 -113 -311q-87 -137 -313 -273q-33 47 -84 80q237 87 340 255q59 88 92 249h-244q-58 0 -117 -9q4 24 4 49q0 21 -4 44zM615 309q44 -65 116 -132q-44 -11 -84 -45q-49 80 -111 141q48 11 79 36z" />
    <glyph glyph-name="uni4E3B" unicode="&#x4e3b;" 
d="M504 844q31 -75 80 -132q-47 -5 -101 -36q-32 83 -71 132q46 10 92 36zM95 665q69 -8 136 -8h561q67 0 136 8q-4 -25 -4 -48q0 -25 4 -48q-69 8 -136 8h-244v-224h183q69 0 136 8q-4 -25 -4 -48q0 -25 4 -48q-67 8 -136 8h-183v-260h288q67 0 136 8q-4 -25 -4 -48
q0 -25 4 -48q-69 8 -136 8h-645q-67 0 -136 -8q4 23 4 48q0 23 -4 48q69 -8 136 -8h269v260h-185q-67 0 -136 -8q4 23 4 48q0 23 -4 48q69 -8 136 -8h185v224h-229q-67 0 -136 -8q4 23 4 48q0 23 -4 48z" />
    <glyph glyph-name="uni4E3D" unicode="&#x4e3d;" 
d="M51 789q69 -8 136 -8h640q69 0 137 8q-5 -25 -5 -48q0 -25 5 -48q-68 8 -137 8h-640q-67 0 -136 -8q4 23 4 48q0 23 -4 48zM112 609q48 -4 96 -4h160q48 0 96 4q-4 -63 -4 -124v-485q0 -52 -48 -71q-50 -21 -105 -21q-3 49 -32 105q38 -13 65 -13q36 0 36 53v480h-176
v-541q0 -48 4 -95q-25 3 -48 3t-44 -3q4 47 4 95v493q0 61 -4 124zM311 437q1 -124 21 -284q-36 0 -73 -8q0 135 -19 288q39 0 71 4zM544 605q48 -5 96 -5h175q48 0 96 5q-4 -63 -4 -124v-493q0 -51 -52 -71q-54 -20 -116 -20q-3 48 -31 103q47 -12 79 -12q36 0 36 52v489
h-191v-537q0 -48 4 -95q-25 3 -48 3t-44 -3q4 47 4 95v489q0 61 -4 124zM752 433q1 -123 27 -280q-37 0 -76 -8q0 133 -27 283q41 0 76 5z" />
    <glyph glyph-name="uni4E3E" unicode="&#x4e3e;" 
d="M227 812q44 -75 116 -155q-44 -10 -84 -44q-50 91 -116 159q52 13 84 40zM512 844l63 -172q-54 -5 -100 -19q-21 106 -51 172q39 2 88 19zM739 840q68 -36 116 -47q-58 -55 -135 -201h91q67 0 132 8q-4 -23 -4 -48q0 -21 4 -44q-65 8 -132 8h-143q43 -52 100 -90
q73 -48 212 -86q-41 -37 -65 -92q-101 48 -165 94q-2 -15 -2 -29q0 -23 4 -44q-67 8 -132 8h-65v-105h228q69 0 137 9q-5 -25 -5 -49q0 -23 5 -48q-68 9 -137 9h-228v-32q0 -84 8 -168q-25 4 -51 4q-27 0 -52 -4q8 84 8 168v32h-220q-69 0 -136 -9q4 25 4 48q0 24 -4 49
q67 -9 136 -9h220v105h-73q-65 0 -132 -8q4 21 4 44q0 16 -2 31q-67 -53 -145 -100q-25 36 -77 69q122 44 208 121q45 36 78 82h-117q-67 0 -132 -8q4 23 4 44q0 25 -4 48q65 -8 132 -8h435q64 132 92 248zM284 359q56 -6 111 -6h72q-1 54 -7 107q46 -4 111 -4
q-16 -36 -16 -91v-12h65q54 0 108 6q-9 7 -15 12q-71 57 -113 145h-155q-16 -14 -28 -28q-59 -70 -133 -129z" />
    <glyph glyph-name="uni4E3F" unicode="&#x4e3f;" 
d="M500 829q41 -8 103 -8q-19 -59 -19 -135v-142q0 -304 -59 -425q-54 -109 -206 -215q-29 41 -75 65q170 101 216 200q48 101 48 375v106q0 79 -8 179z" />
    <glyph glyph-name="uni4E43" unicode="&#x4e43;" 
d="M147 768q49 -4 97 -4h447q59 0 117 4q-15 -45 -77 -312h136q36 0 72 4q-8 -38 -12 -82l-35 -329q-12 -81 -83 -104q-73 -24 -154 -24q-9 61 -44 107q55 -11 72 -11q113 0 125 76l32 279h-145q-33 0 -67 -4q47 215 63 312h-201q-3 -194 -33 -331q-39 -179 -122 -287
q-75 -96 -179 -154q-45 62 -93 92q92 34 169 103q78 79 113 186q32 85 45 209q8 45 9 182h-155q-48 0 -97 -4q5 25 5 48t-5 44z" />
    <glyph glyph-name="uni4E45" unicode="&#x4e45;" 
d="M384 833q57 -28 112 -37q-28 -27 -65 -118l-14 -34h190q73 0 145 9q-65 -155 -125 -268q83 -196 151 -251q65 -66 205 -117q-67 -46 -107 -113q-139 102 -212 220q-48 69 -86 175q-34 -56 -66 -98q-93 -139 -373 -308q-30 48 -80 88q202 85 320 216q114 119 209 359h-212
q-22 -43 -45 -79q-60 -95 -127 -177q-41 34 -109 57q110 89 170 187q60 95 119 289z" />
    <glyph glyph-name="uni4E47" unicode="&#x4e47;" 
d="M783 697q-124 -16 -271 -26v-233l225 6q92 2 227 16q-5 -23 -5 -48q0 -24 9 -47q-121 -2 -244 -2l-212 -7v-276q0 -22 7 -36q11 -12 36 -12h245q34 0 45 18q12 24 22 135q40 -37 101 -57q-22 -108 -42 -140q-28 -44 -103 -44h-308q-58 0 -76 30q-19 25 -19 87v292
l-149 -5q-91 -2 -208 -16q5 25 5 48q0 25 -9 48q117 1 205 1l156 6v230q-126 -7 -268 -12q-21 69 -40 103q74 -11 147 -11q142 0 297 13q114 9 240 46q24 -70 59 -124q-45 17 -72 17z" />
    </font>
</defs>
</svg>
