<?xml version="1.0" standalone="no"?>
<!DOCTYPE svg PUBLIC "-//W3C//DTD SVG 1.1//EN" "http://www.w3.org/Graphics/SVG/1.1/DTD/svg11.dtd" >
<svg xmlns="http://www.w3.org/2000/svg" xmlns:xlink="http://www.w3.org/1999/xlink" version="1.1">
<metadata>
Created by FontForge 20161013 at Wed Aug  9 08:36:54 2017
 By ,,,
</metadata>
<defs>
<font id="DFHeiStd-W7-BIG" horiz-adv-x="1000" vert-adv-y="1000" >
  <font-face 
    font-family="DFHeiStd-W7-BIG"
    font-weight="400"
    font-stretch="normal"
    units-per-em="1000"
    panose-1="2 0 5 3 0 0 0 0 0 0"
    ascent="800"
    descent="-200"
    x-height="449"
    cap-height="736"
    bbox="0 -140 1000 860"
    underline-thickness="50"
    underline-position="-200"
    unicode-range="U+0021-2FA1B"
  />
<missing-glyph 
 />
    <glyph glyph-name=".notdef" 
 />
    <glyph glyph-name=".null" horiz-adv-x="0" vert-adv-y="0" 
 />
    <glyph glyph-name="nonmarkingreturn" horiz-adv-x="333" 
 />
    <glyph glyph-name="uni00A0" unicode="&#xa0;" horiz-adv-x="333" 
 />
    <glyph glyph-name="uni00A0" unicode=" " horiz-adv-x="333" 
 />
    <glyph glyph-name="exclam" unicode="!" horiz-adv-x="333" 
d="M229 665l-28 -466h-68l-28 466h124zM225 1h-116v119h116v-119z" />
    <glyph glyph-name="quotedbl" unicode="&#x22;" horiz-adv-x="356" 
d="M296 665l-20 -249h-63l-20 249h103zM163 665l-20 -249h-63l-20 249h103z" />
    <glyph glyph-name="numbersign" unicode="#" horiz-adv-x="550" 
d="M542 495l-8 -82h-111l-18 -152h98l-7 -82h-101l-19 -170h-89l20 170h-102l-20 -170h-89l21 170h-109l8 82h111l18 152h-98l7 82h100l20 170h89l-20 -170h102l20 170h89l-21 -170h109zM335 413h-102l-18 -152h102z" />
    <glyph glyph-name="dollar" unicode="$" horiz-adv-x="550" 
d="M513 195q0 -82 -61 -134q-55 -46 -139 -56v-76h-76v75q-161 14 -200 182l84 33q27 -111 116 -125v224q-86 30 -124 60q-58 45 -58 119q0 81 55 127q47 39 127 48v56h76v-57q82 -9 131 -56q33 -35 57 -100l-86 -36q-15 44 -33 65q-23 28 -69 37v-182q93 -33 136 -67
q64 -55 64 -137zM237 426v156q-88 -13 -88 -85q0 -35 88 -71zM418 195q0 51 -105 95v-194q51 9 78 36t27 63z" />
    <glyph glyph-name="percent" unicode="%" horiz-adv-x="824" 
d="M784 174q0 -81 -43 -127t-111 -46q-72 0 -112 45q-41 44 -41 128q0 80 41 130q41 52 112 52q70 0 114 -53q40 -52 40 -129zM698 176q0 98 -68 98q-30 0 -48 -26q-20 -24 -20 -72q0 -45 19 -68q17 -23 49 -23q68 0 68 91zM755 629l-632 -631l-54 54l632 631zM347 493
q0 -81 -43 -127q-41 -47 -110 -47q-72 0 -112 46q-42 45 -42 128q0 78 42 129q41 52 112 52q69 0 112 -52q41 -52 41 -129zM261 494q0 99 -67 99q-29 0 -49 -26t-20 -73q0 -45 19 -68q20 -24 50 -24q67 0 67 92z" />
    <glyph glyph-name="ampersand" unicode="&#x26;" horiz-adv-x="634" 
d="M619 339h-55q-12 -101 -53 -179q54 -39 104 -61l-41 -70q-56 24 -112 63q-87 -90 -204 -90q-96 0 -155 48q-63 51 -63 143q0 96 127 186q-57 87 -57 145q0 71 47 112q45 37 113 37q59 0 102 -41q41 -43 41 -105q0 -50 -38 -94q-29 -33 -89 -74q52 -60 157 -146
q25 56 35 126h-77v84h218v-84zM328 527q0 65 -62 65q-71 0 -71 -68q0 -39 41 -99q92 60 92 102zM394 143q-105 83 -178 171q-90 -63 -90 -121q0 -110 132 -110q73 0 136 60z" />
    <glyph glyph-name="quotesingle" unicode="'" horiz-adv-x="223" 
d="M163 665l-20 -249h-63l-20 249h103z" />
    <glyph glyph-name="parenleft" unicode="(" horiz-adv-x="333" 
d="M285 -30l-55 -66q-182 186 -182 433q0 246 182 434l55 -67q-152 -156 -152 -367q0 -212 152 -367z" />
    <glyph glyph-name="parenright" unicode=")" horiz-adv-x="333" 
d="M285 337q0 -245 -182 -433l-55 66q152 157 152 367q0 209 -152 367l55 67q182 -190 182 -434z" />
    <glyph glyph-name="asterisk" unicode="*" horiz-adv-x="486" 
d="M456 373l-44 -76l-148 112l23 -186h-88l23 186l-148 -112l-44 76l170 73l-170 72l44 76l147 -110l-22 181h88l-22 -181l147 110l44 -76l-170 -72z" />
    <glyph glyph-name="plus" unicode="+" horiz-adv-x="506" 
d="M466 191h-174v-174h-78v174h-174v78h174v174h78v-174h174v-78z" />
    <glyph glyph-name="comma" unicode="," horiz-adv-x="208" 
d="M168 19q0 -91 -84 -155l-35 44q50 41 59 92h-68v128h128v-109z" />
    <glyph glyph-name="hyphen" unicode="-" horiz-adv-x="333" 
d="M292 191h-250v78h250v-78z" />
    <glyph glyph-name="period" unicode="." horiz-adv-x="208" 
d="M168 0h-128v128h128v-128z" />
    <glyph glyph-name="slash" unicode="/" horiz-adv-x="278" 
d="M272 707l-198 -792l-68 19l200 793z" />
    <glyph glyph-name="zero" unicode="0" horiz-adv-x="550" 
d="M489 336q0 -336 -214 -336t-214 336q0 338 214 338t214 -338zM395 336q0 137 -32 198q-29 51 -88 51q-120 0 -120 -249q0 -247 120 -247q57 0 87 51q33 59 33 196z" />
    <glyph glyph-name="one" unicode="1" horiz-adv-x="550" 
d="M382 9h-90v506h-123v61q113 0 144 88h69v-655z" />
    <glyph glyph-name="two" unicode="2" horiz-adv-x="550" 
d="M477 503q0 -63 -43 -127q-32 -48 -100 -111q-118 -112 -142 -171h284v-86h-403q22 96 74 175q41 63 124 140q65 62 88 99q24 38 24 81q0 82 -110 82q-107 0 -114 -150l-86 32q9 95 62 151q51 56 138 56q90 0 147 -45t57 -126z" />
    <glyph glyph-name="three" unicode="3" horiz-adv-x="550" 
d="M478 188q0 -81 -59 -134q-60 -54 -147 -54q-163 0 -199 163l85 28q21 -108 114 -108q53 0 84 32q28 30 28 73q0 48 -28 84q-31 34 -76 34h-81v79h69q34 0 65 37t31 76q0 87 -87 87q-80 0 -97 -97l-85 26q14 71 57 113q49 47 125 47q83 0 132 -48q49 -49 49 -128
q0 -90 -76 -142q45 -22 70 -67q26 -46 26 -101z" />
    <glyph glyph-name="four" unicode="4" horiz-adv-x="550" 
d="M491 157h-80v-149h-92v149h-260v83l271 425h81v-422h80v-86zM319 243v248l-155 -248h155z" />
    <glyph glyph-name="five" unicode="5" horiz-adv-x="550" 
d="M477 240q0 -112 -63 -178q-58 -62 -147 -62q-139 0 -193 147l80 34q36 -92 113 -92q116 0 116 151q0 141 -96 141q-41 0 -66 -17q-21 -15 -39 -54h-83v355h352v-86h-261v-139q36 30 97 30q88 0 139 -63t51 -167z" />
    <glyph glyph-name="six" unicode="6" horiz-adv-x="550" 
d="M494 222q0 -84 -53 -149q-61 -73 -162 -73q-112 0 -169 88q-54 82 -54 236q0 168 56 258q56 92 167 92q136 0 193 -141l-84 -33q-22 47 -38 62q-25 23 -71 23q-111 0 -127 -204q63 49 132 49q99 0 157 -61q53 -58 53 -147zM399 222q0 119 -115 119q-37 0 -76 -17
q-38 -18 -56 -45q9 -190 127 -190q59 0 91 41q29 37 29 92z" />
    <glyph glyph-name="seven" unicode="7" horiz-adv-x="550" 
d="M500 585q-133 -133 -172 -267q-30 -100 -30 -309h-97q0 194 32 305q39 140 149 265h-332v86h450v-80z" />
    <glyph glyph-name="eight" unicode="8" horiz-adv-x="550" 
d="M486 193q0 -89 -55 -141t-154 -52q-101 0 -157 52q-56 50 -56 141q0 113 99 176q-77 50 -77 135q0 79 51 124t138 45t138 -45t51 -124q0 -84 -77 -135q99 -63 99 -176zM369 499q0 84 -94 84t-94 -84q0 -40 27 -64q26 -25 68 -25q41 0 67 25q26 24 26 64zM391 197
q0 127 -117 127q-54 0 -84 -32q-31 -32 -31 -95q0 -108 118 -108q114 0 114 108z" />
    <glyph glyph-name="nine" unicode="9" horiz-adv-x="550" 
d="M473 331q0 -150 -48 -234q-54 -97 -167 -97q-117 0 -166 130l82 38q31 -79 84 -79q50 0 78 39q32 44 41 146q-51 -44 -113 -44q-85 0 -136 54t-51 153q0 96 48 162q54 74 146 74q120 0 168 -109q34 -80 34 -233zM379 386q-6 199 -108 199q-43 0 -70 -38q-30 -42 -30 -110
q0 -118 100 -118q60 0 108 67z" />
    <glyph glyph-name="colon" unicode=":" horiz-adv-x="208" 
d="M168 323h-128v128h128v-128zM168 8h-128v128h128v-128z" />
    <glyph glyph-name="semicolon" unicode=";" horiz-adv-x="208" 
d="M168 323h-128v128h128v-128zM168 27q0 -91 -84 -155l-35 44q50 41 59 92h-68v128h128v-109z" />
    <glyph glyph-name="less" unicode="&#x3c;" horiz-adv-x="506" 
d="M458 69l-41 -64l-369 224l369 225l41 -64l-264 -161z" />
    <glyph glyph-name="equal" unicode="=" horiz-adv-x="506" 
d="M466 277h-426v78h426v-78zM466 105h-426v78h426v-78z" />
    <glyph glyph-name="greater" unicode="&#x3e;" horiz-adv-x="506" 
d="M458 229l-369 -224l-41 64l264 160l-264 161l41 64z" />
    <glyph glyph-name="question" unicode="?" horiz-adv-x="472" 
d="M412 526q0 -52 -34 -95q-48 -50 -71 -74q-53 -59 -54 -163h-91q0 85 26 143q23 51 83 110q43 43 43 79q0 24 -20 42q-21 18 -57 18q-43 0 -61 -21q-20 -21 -21 -66h-95q3 77 45 123q47 50 132 50q65 0 115 -33q60 -42 60 -113zM265 0h-115v119h115v-119z" />
    <glyph glyph-name="at" unicode="@" horiz-adv-x="804" 
d="M622 515q-30 -90 -50 -152q-40 -120 -40 -128q10 -9 16 -9q41 0 79 34q50 44 50 118q0 80 -55 137zM764 378q0 -92 -66 -164q-67 -73 -150 -73q-67 0 -89 63q-55 -55 -125 -55q-61 0 -98 38q-41 41 -41 115q0 95 71 170q69 75 171 75q57 0 94 -52l6 22h83q-75 72 -202 72
q-136 0 -219 -84q-72 -73 -72 -168q0 -127 88 -194q74 -59 191 -59q145 0 231 62l57 -62q-102 -84 -288 -84q-150 0 -251 81q-115 91 -115 256q0 126 94 223q109 112 284 112q165 0 261 -90q85 -83 85 -204zM491 380q0 82 -54 82q-63 0 -108 -45q-47 -47 -47 -125
q0 -28 20 -44q16 -15 39 -15q48 0 96 51q54 58 54 96z" />
    <glyph glyph-name="A" unicode="A" horiz-adv-x="664" 
d="M649 8h-98l-74 181h-290l-74 -181h-98l271 657h92zM440 275l-108 264l-108 -264h216z" />
    <glyph glyph-name="B" unicode="B" horiz-adv-x="572" 
d="M532 193q0 -94 -86 -145q-68 -40 -157 -40h-229v655h234q220 0 220 -173q0 -86 -71 -137q89 -51 89 -160zM420 490q0 87 -128 87h-141v-185h123q66 0 106 28t40 70zM437 193q0 57 -45 87q-41 26 -106 26h-135v-212h135q65 0 110 30q41 29 41 69z" />
    <glyph glyph-name="C" unicode="C" horiz-adv-x="588" 
d="M558 505l-89 -33q-45 112 -150 112q-72 0 -126 -66q-59 -72 -59 -190q0 -115 55 -180q47 -59 116 -59q60 0 96 32q33 29 62 98l86 -35q-38 -91 -90 -134q-60 -50 -154 -50q-115 0 -189 92q-76 89 -76 236q0 148 80 246q80 100 199 100q173 0 239 -169z" />
    <glyph glyph-name="D" unicode="D" horiz-adv-x="638" 
d="M598 332q0 -151 -92 -238q-92 -86 -257 -86h-189v657h189q171 0 257 -75q92 -83 92 -258zM503 332q0 133 -59 190q-60 57 -195 57h-97v-485h97q128 0 194 66q60 60 60 172z" />
    <glyph glyph-name="E" unicode="E" horiz-adv-x="514" 
d="M474 8h-414v657h414v-86h-323v-192h286v-86h-286v-207h323v-86z" />
    <glyph glyph-name="F" unicode="F" horiz-adv-x="510" 
d="M470 580h-319v-192h280v-86h-280v-294h-91v658h410v-86z" />
    <glyph glyph-name="G" unicode="G" horiz-adv-x="644" 
d="M604 517l-87 -35q-61 102 -177 102q-88 0 -144 -63q-61 -70 -61 -196q0 -107 61 -174q55 -61 132 -61q65 0 111 43q57 53 57 151h-167v86h260v-363h-93v66q-72 -73 -168 -73q-119 0 -201 88q-87 93 -87 237q0 161 85 256q83 92 215 92q171 0 264 -156z" />
    <glyph glyph-name="H" unicode="H" horiz-adv-x="626" 
d="M566 8h-92v287h-322v-287h-92v657h92v-284h322v284h92v-657z" />
    <glyph glyph-name="I" unicode="I" horiz-adv-x="333" 
d="M214 8h-94v657h94v-657z" />
    <glyph glyph-name="J" unicode="J" horiz-adv-x="517" 
d="M457 239q0 -106 -58 -173q-59 -66 -161 -66q-178 0 -218 181l87 17q13 -58 45 -84q29 -25 86 -25q127 0 127 152v424h92v-426z" />
    <glyph glyph-name="K" unicode="K" horiz-adv-x="618" 
d="M598 8h-121l-257 299l-68 -69v-230h-92v657h92v-303l303 303h120l-291 -293z" />
    <glyph glyph-name="L" unicode="L" horiz-adv-x="516" 
d="M496 8h-436v657h92v-571h344v-86z" />
    <glyph glyph-name="M" unicode="M" horiz-adv-x="786" 
d="M726 8h-91v486l-199 -486h-86l-199 486v-486h-91v657h116l217 -537l217 537h116v-657z" />
    <glyph glyph-name="N" unicode="N" horiz-adv-x="646" 
d="M586 8h-101l-333 510v-510h-92v657h101l333 -510v510h92v-657z" />
    <glyph glyph-name="O" unicode="O" horiz-adv-x="646" 
d="M606 337q0 -143 -73 -237q-78 -100 -210 -100q-134 0 -210 100q-73 92 -73 237q0 144 73 236q77 100 210 100q131 0 210 -100q73 -94 73 -236zM511 337q0 111 -52 180q-53 67 -136 67q-85 0 -137 -67q-51 -67 -51 -180q0 -114 52 -181q50 -68 136 -68q84 0 136 68
q52 69 52 181z" />
    <glyph glyph-name="P" unicode="P" horiz-adv-x="564" 
d="M524 479q0 -88 -66 -139q-63 -48 -162 -48h-144v-284h-92v657h236q100 0 163 -46q65 -51 65 -140zM429 479q0 100 -135 100h-142v-201h142q135 0 135 101z" />
    <glyph glyph-name="Q" unicode="Q" horiz-adv-x="666" 
d="M646 31l-67 -64q-48 51 -88 91q-74 -58 -168 -58q-134 0 -211 101q-72 93 -72 238q0 142 72 235q78 99 211 99q132 0 210 -99q72 -93 72 -235q0 -123 -54 -213q46 -44 95 -95zM511 339q0 114 -51 180t-137 66t-137 -66q-52 -65 -52 -180t52 -182q50 -68 137 -68
q54 0 101 32q-20 18 -63 57l61 65q7 -6 27 -24t33 -29q29 61 29 149z" />
    <glyph glyph-name="R" unicode="R" horiz-adv-x="609" 
d="M589 8h-104l-152 284h-181v-284h-92v657h280q101 0 163 -47q65 -51 65 -139q0 -129 -137 -173zM474 479q0 100 -136 100h-186v-201h186q71 0 106 31q30 27 30 70z" />
    <glyph glyph-name="S" unicode="S" horiz-adv-x="516" 
d="M496 192q0 -95 -77 -146q-67 -46 -168 -46q-187 0 -231 183l84 34q31 -128 147 -128q72 0 113 31q37 29 37 72q0 63 -173 123q-90 30 -129 60q-61 46 -61 122q0 89 67 137q57 39 150 39q104 0 163 -50q39 -36 66 -109l-86 -35q-18 51 -41 74q-36 31 -102 31
q-123 0 -123 -87q0 -42 150 -93q101 -35 145 -69q69 -55 69 -143z" />
    <glyph glyph-name="T" unicode="T" horiz-adv-x="558" 
d="M538 579h-213v-571h-92v571h-213v86h518v-86z" />
    <glyph glyph-name="U" unicode="U" horiz-adv-x="640" 
d="M580 280q0 -151 -69 -217q-63 -63 -192 -63t-191 63q-68 65 -68 217v385h92v-385q0 -113 40 -154q36 -37 127 -37q92 0 128 37q40 43 40 154v385h93v-385z" />
    <glyph glyph-name="V" unicode="V" horiz-adv-x="626" 
d="M611 665l-254 -657h-89l-253 657h97l201 -531l201 531h97z" />
    <glyph glyph-name="W" unicode="W" horiz-adv-x="844" 
d="M829 665l-184 -657h-90l-133 498l-133 -498h-90l-184 657h96l132 -504l135 504h88l135 -504l132 504h96z" />
    <glyph glyph-name="X" unicode="X" horiz-adv-x="658" 
d="M643 8h-113l-200 274l-201 -274h-114l258 350l-226 307h111l172 -232l170 232h112l-226 -307z" />
    <glyph glyph-name="Y" unicode="Y" horiz-adv-x="644" 
d="M629 665l-260 -353v-304h-93v303l-261 354h112l195 -264l197 264h110z" />
    <glyph glyph-name="Z" unicode="Z" horiz-adv-x="519" 
d="M489 8h-459v83l348 488h-338v86h449v-82l-349 -489h349v-86z" />
    <glyph glyph-name="bracketleft" unicode="[" horiz-adv-x="333" 
d="M281 -94h-229v857h229v-85h-151v-686h151v-86z" />
    <glyph glyph-name="backslash" unicode="\" horiz-adv-x="278" 
d="M272 -66l-68 -19l-198 792l66 20z" />
    <glyph glyph-name="bracketright" unicode="]" horiz-adv-x="333" 
d="M281 -94h-229v86h151v686h-151v85h229v-857z" />
    <glyph glyph-name="asciicircum" unicode="^" horiz-adv-x="426" 
d="M401 513h-88l-98 106l-102 -106h-88l126 160h124z" />
    <glyph glyph-name="underscore" unicode="_" horiz-adv-x="500" 
d="M500 -140h-500v82h500v-82z" />
    <glyph glyph-name="grave" unicode="`" horiz-adv-x="333" 
d="M303 539l-30 -40l-243 96l61 78z" />
    <glyph glyph-name="a" unicode="a" horiz-adv-x="472" 
d="M432 7h-90q-12 30 -15 55q-65 -62 -150 -62q-64 0 -105 32q-42 33 -42 90q0 85 75 127q70 38 218 44q-9 81 -90 81q-61 0 -97 -59l-85 39q59 105 182 105q91 0 139 -53q44 -50 44 -139v-188q0 -31 16 -72zM323 209q-199 -4 -199 -87q0 -37 53 -37q54 0 95 34q40 33 51 90
z" />
    <glyph glyph-name="b" unicode="b" horiz-adv-x="502" 
d="M472 238q0 -104 -61 -173q-56 -65 -138 -65q-84 0 -141 57v-50h-92v659h92v-253q58 51 135 51q89 0 149 -69q56 -67 56 -157zM377 238q0 59 -31 99q-32 39 -85 39q-54 0 -91 -42q-38 -41 -38 -104q0 -69 39 -108q36 -36 96 -36q44 0 77 42q33 41 33 110z" />
    <glyph glyph-name="c" unicode="c" horiz-adv-x="456" 
d="M426 143q-66 -143 -193 -143q-87 0 -145 64t-58 164q0 102 58 166q57 65 146 65q123 0 189 -120l-82 -36q-38 71 -107 71q-44 0 -74 -36q-36 -42 -36 -110q0 -65 36 -106q31 -37 73 -37q70 0 112 94z" />
    <glyph glyph-name="d" unicode="d" horiz-adv-x="498" 
d="M458 7h-91v47q-51 -54 -138 -54q-82 0 -138 65q-61 67 -61 173q0 95 56 160q57 65 148 65q79 0 133 -49v249h91v-656zM367 230q0 66 -36 106q-37 40 -91 40q-49 0 -82 -39q-34 -38 -34 -99q0 -71 36 -113q33 -39 75 -39q58 0 93 35q39 39 39 109z" />
    <glyph glyph-name="e" unicode="e" horiz-adv-x="451" 
d="M421 128q-76 -128 -195 -128q-92 0 -146 67q-50 62 -50 166q0 105 60 168q55 58 139 58q81 0 135 -56q56 -61 56 -153v-42h-298q12 -122 104 -122q67 0 115 84zM323 295q-27 79 -94 79q-73 0 -100 -79h194z" />
    <glyph glyph-name="f" unicode="f" horiz-adv-x="356" 
d="M326 373h-116v-365h-91v365h-89v86h89v76q0 129 120 129h87v-86h-71q-31 0 -37 -9q-8 -8 -8 -39v-71h116v-86z" />
    <glyph glyph-name="g" unicode="g" horiz-adv-x="476" 
d="M436 83q0 -91 -55 -151q-56 -59 -144 -59q-129 0 -190 112l80 39q37 -66 110 -66q48 0 78 32q30 33 30 93v16q-53 -51 -115 -51q-86 0 -143 60q-57 58 -57 144q0 87 56 146q57 60 144 60q63 0 115 -41v34h91v-368zM344 255q0 50 -32 85q-32 33 -82 33q-44 0 -74 -35
q-32 -35 -32 -86q0 -50 32 -82q29 -35 74 -35q50 0 82 32t32 88z" />
    <glyph glyph-name="h" unicode="h" horiz-adv-x="485" 
d="M445 8h-90v265q0 54 -20 77q-21 23 -73 23q-84 0 -131 -103v-262h-91v655h91v-259q56 56 131 56q183 0 183 -187v-265z" />
    <glyph glyph-name="i" unicode="i" horiz-adv-x="333" 
d="M213 574h-92v99h92v-99zM213 8h-92v441h92v-441z" />
    <glyph glyph-name="j" unicode="j" horiz-adv-x="256" 
d="M216 574h-92v99h92v-99zM214 27q0 -66 -30 -108q-33 -47 -96 -47h-83v88h80q40 0 40 67v432h89v-432z" />
    <glyph glyph-name="k" unicode="k" horiz-adv-x="436" 
d="M431 8h-105l-143 224l-52 -51v-173h-91v656h91v-369l170 169h118l-174 -174z" />
    <glyph glyph-name="l" unicode="l" horiz-adv-x="333" 
d="M213 8h-92v657h92v-657z" />
    <glyph glyph-name="m" unicode="m" horiz-adv-x="720" 
d="M680 7h-92v274q0 93 -66 93q-29 0 -66 -20q-37 -22 -54 -47q2 -28 2 -30v-270h-92v270q0 97 -67 97q-27 0 -62 -19q-34 -20 -51 -46v-302h-92v446h92v-39q57 45 113 45q88 0 132 -70q70 70 145 70q81 0 123 -56q35 -49 35 -126v-270z" />
    <glyph glyph-name="n" unicode="n" horiz-adv-x="484" 
d="M444 8h-91v252q0 113 -93 113q-77 0 -129 -76v-289h-91v444h91v-44q60 51 135 51q178 0 178 -199v-252z" />
    <glyph glyph-name="o" unicode="o" horiz-adv-x="514" 
d="M484 225q0 -103 -68 -166q-63 -59 -159 -59q-97 0 -159 59q-68 62 -68 166q0 101 62 167q64 67 165 67t165 -67q62 -68 62 -167zM389 225q0 64 -37 107q-36 41 -95 41q-60 0 -96 -41q-36 -42 -36 -107q0 -64 38 -101q37 -39 94 -39t95 38q37 39 37 102z" />
    <glyph glyph-name="p" unicode="p" horiz-adv-x="502" 
d="M472 228q0 -114 -63 -175q-56 -56 -142 -56q-84 0 -135 51v-175h-92v579h92v-47q52 54 130 54q96 0 153 -65q57 -66 57 -166zM378 228q0 66 -31 106q-31 39 -85 39q-58 0 -92 -39q-38 -41 -38 -117q0 -64 44 -101q39 -33 91 -33q47 0 76 32q35 37 35 113z" />
    <glyph glyph-name="q" unicode="q" horiz-adv-x="502" 
d="M462 -127h-92v175q-52 -51 -135 -51q-87 0 -142 56q-63 62 -63 175q0 100 57 166q57 65 153 65q76 0 130 -54v47h92v-579zM370 217q0 73 -36 115q-38 41 -94 41t-86 -39t-30 -106q0 -76 36 -114q30 -31 75 -31q55 0 93 34q42 37 42 100z" />
    <glyph glyph-name="r" unicode="r" horiz-adv-x="299" 
d="M284 362q-154 -6 -154 -131v-224h-90v443h90v-54q28 31 67 43q32 10 87 11v-88z" />
    <glyph glyph-name="s" unicode="s" horiz-adv-x="426" 
d="M406 135q0 -59 -52 -97q-50 -38 -127 -38q-132 0 -207 118l89 37q43 -70 118 -70q45 0 69 21q17 15 17 29q0 32 -113 59q-170 40 -170 132q0 72 59 107q44 26 109 26q127 0 198 -106l-85 -38q-43 58 -113 58q-76 0 -76 -47q0 -24 103 -45q83 -19 119 -41q62 -38 62 -105z
" />
    <glyph glyph-name="t" unicode="t" horiz-adv-x="309" 
d="M289 373h-107v-247q0 -21 5 -26q4 -7 18 -7h80v-85h-83q-61 0 -85 30q-25 29 -25 95v240h-77v86h77v111h90v-111h107v-86z" />
    <glyph glyph-name="u" unicode="u" horiz-adv-x="484" 
d="M444 7h-91v58q-65 -65 -137 -65q-176 0 -176 193v256h91v-264q0 -63 25 -84q17 -16 60 -16q36 0 70 23q42 25 67 73v268h91v-442z" />
    <glyph glyph-name="v" unicode="v" horiz-adv-x="476" 
d="M466 450l-184 -443h-88l-184 443h95l133 -327l133 327h95z" />
    <glyph glyph-name="w" unicode="w" horiz-adv-x="762" 
d="M752 449l-166 -441h-90l-115 315l-115 -315h-90l-166 441h97l114 -332l115 332h90l115 -332l114 332h97z" />
    <glyph glyph-name="x" unicode="x" horiz-adv-x="512" 
d="M502 8h-107l-140 167l-138 -167h-107l192 234l-167 208h107l113 -142l115 142h107l-168 -208z" />
    <glyph glyph-name="y" unicode="y" horiz-adv-x="432" 
d="M422 449l-183 -470q-24 -60 -61 -83q-38 -23 -114 -25v90q44 2 56 7q20 8 35 44l13 33l-158 404h96l110 -281l110 281h96z" />
    <glyph glyph-name="z" unicode="z" horiz-adv-x="370" 
d="M355 8h-340v72l224 284h-218v85h334v-74l-220 -282h220v-85z" />
    <glyph glyph-name="braceleft" unicode="{" horiz-adv-x="333" 
d="M277 -89h-72q-82 0 -82 97v230q0 41 -34 41h-33v115h33q34 0 34 42v233q0 96 82 96h72v-85h-62q-12 0 -12 -11v-225q0 -71 -41 -107q41 -38 41 -108v-221q0 -12 12 -12h62v-85z" />
    <glyph glyph-name="bar" unicode="|" horiz-adv-x="202" 
d="M142 -1h-82v674h82v-674z" />
    <glyph glyph-name="braceright" unicode="}" horiz-adv-x="333" 
d="M277 279h-33q-34 0 -34 -41v-230q0 -97 -82 -97h-72v85h62q12 0 12 12v221q0 71 41 108q-41 35 -41 107v225q0 11 -12 11h-62v85h72q82 0 82 -96v-233q0 -42 34 -42h33v-115z" />
    <glyph glyph-name="asciitilde" unicode="~" horiz-adv-x="333" 
d="M325 360q-27 -90 -90 -90q-24 0 -42 11q-1 0 -37 28q-46 34 -58 34q-18 0 -39 -54l-51 27q36 88 90 88q36 0 82 -34q48 -38 54 -38q23 0 38 49z" />
    <glyph glyph-name="cent" unicode="&#xffe0;" 
d="M719 271q-60 -130 -170 -151v-113h-76v112q-82 12 -137 83q-55 68 -55 168q0 104 53 172q54 69 139 82v112h76v-112q106 -17 166 -126l-83 -36q-33 59 -83 74v-326q54 21 88 97zM473 209v326q-42 -15 -67 -55q-29 -44 -29 -110q0 -64 29 -106q27 -40 67 -55z" />
    <glyph glyph-name="cent" unicode="&#xa2;" 
d="M719 271q-60 -130 -170 -151v-113h-76v112q-82 12 -137 83q-55 68 -55 168q0 104 53 172q54 69 139 82v112h76v-112q106 -17 166 -126l-83 -36q-33 59 -83 74v-326q54 21 88 97zM473 209v326q-42 -15 -67 -55q-29 -44 -29 -110q0 -64 29 -106q27 -40 67 -55z" />
    <glyph glyph-name="sterling" unicode="&#xffe1;" 
d="M862 277q-15 -116 -62 -189q-58 -87 -156 -87q-77 0 -216 74q-60 -75 -155 -75q-53 0 -92 30q-43 31 -43 84q0 56 37 87q34 29 88 29q37 0 115 -38q-3 59 -29 159h-141v76h125q-11 50 -11 93q0 109 64 169q60 55 154 55q175 0 222 -199l-77 -30q-36 148 -145 148
q-131 0 -131 -143q0 -36 12 -93h193v-76h-178q29 -113 29 -164q0 -11 -4 -39q123 -66 183 -66q47 0 85 56q41 58 53 161zM350 115q-68 34 -83 34q-42 0 -42 -35q0 -33 48 -33q43 0 77 34z" />
    <glyph glyph-name="sterling" unicode="&#xa3;" 
d="M862 277q-15 -116 -62 -189q-58 -87 -156 -87q-77 0 -216 74q-60 -75 -155 -75q-53 0 -92 30q-43 31 -43 84q0 56 37 87q34 29 88 29q37 0 115 -38q-3 59 -29 159h-141v76h125q-11 50 -11 93q0 109 64 169q60 55 154 55q175 0 222 -199l-77 -30q-36 148 -145 148
q-131 0 -131 -143q0 -36 12 -93h193v-76h-178q29 -113 29 -164q0 -11 -4 -39q123 -66 183 -66q47 0 85 56q41 58 53 161zM350 115q-68 34 -83 34q-42 0 -42 -35q0 -33 48 -33q43 0 77 34z" />
    <glyph glyph-name="yen" unicode="&#xffe5;" 
d="M833 736l-249 -334h203v-77h-244v-78h244v-77h-244v-162h-86v162h-244v77h244v78h-244v77h203l-249 334h104l229 -315l229 315h104z" />
    <glyph glyph-name="yen" unicode="&#xa5;" 
d="M833 736l-249 -334h203v-77h-244v-78h244v-77h-244v-162h-86v162h-244v77h244v78h-244v77h203l-249 334h104l229 -315l229 315h104z" />
    <glyph glyph-name="section" unicode="&#xa7;" 
d="M708 621l-73 -41q-25 64 -50 89q-33 35 -85 35q-103 0 -103 -79q0 -61 99 -96q116 -43 134 -53q73 -43 73 -117q0 -77 -92 -127q86 -60 86 -146q0 -74 -67 -117q-58 -35 -128 -35q-152 0 -210 150l75 35q18 -47 55 -75q36 -27 80 -27q47 0 79 23q29 21 29 46q0 44 -59 77
q-20 9 -97 37t-110 55q-49 40 -49 104q0 83 91 129q-75 54 -75 137q0 75 50 119t139 44q80 0 132 -46q42 -37 76 -121zM616 359q0 33 -50 60q-46 22 -78 22q-46 0 -77 -23q-30 -24 -30 -59q0 -34 53 -59q44 -22 83 -22q41 0 70 22q29 23 29 59z" />
    <glyph glyph-name="dieresis" unicode="&#xf6e8;" 
d="M675 740h-120v120h120v-120zM446 740h-120v120h120v-120z" />
    <glyph glyph-name="dieresis" unicode="&#x308;" 
d="M675 740h-120v120h120v-120zM446 740h-120v120h120v-120z" />
    <glyph glyph-name="dieresis" unicode="&#xa8;" 
d="M675 740h-120v120h120v-120zM446 740h-120v120h120v-120z" />
    <glyph glyph-name="copyright" unicode="&#xa9;" horiz-adv-x="792" 
d="M752 360q0 -146 -104 -252q-104 -104 -252 -104t-252 104t-104 252t104 252q106 104 252 104t252 -104q104 -106 104 -252zM693 360q0 123 -87 210t-210 87t-210 -87t-87 -210t87 -210q86 -86 210 -86t210 86q87 87 87 210zM584 476l-71 -26q-33 82 -107 82
q-49 0 -89 -46q-42 -52 -42 -134q0 -80 39 -125q33 -39 82 -39q43 0 66 22q26 22 46 72l70 -28q-58 -140 -182 -140q-84 0 -140 66q-56 65 -56 172q0 109 59 181q59 73 147 73q127 0 178 -130z" />
    <glyph glyph-name="logicalnot" unicode="&#xffe2;" 
d="M975 52h-62v248h-888v62h950v-310z" />
    <glyph glyph-name="logicalnot" unicode="&#xf817;" 
d="M975 52h-62v248h-888v62h950v-310z" />
    <glyph glyph-name="logicalnot" unicode="&#xac;" 
d="M975 52h-62v248h-888v62h950v-310z" />
    <glyph glyph-name="macron" unicode="&#x203e;" 
d="M1000 799h-1000v61h1000v-61z" />
    <glyph glyph-name="macron" unicode="&#x304;" 
d="M1000 799h-1000v61h1000v-61z" />
    <glyph glyph-name="macron" unicode="&#xaf;" 
d="M1000 799h-1000v61h1000v-61z" />
    <glyph glyph-name="degree" unicode="&#xb0;" 
d="M262 716q0 -49 -35 -84t-84 -35q-50 0 -84 35q-35 34 -35 84q0 49 35 84t84 35q47 0 84 -35q35 -37 35 -84zM207 716q0 24 -19 45q-21 19 -45 19q-26 0 -45 -19t-19 -45q0 -27 19 -45q18 -19 45 -19q26 0 45 19t19 45z" />
    <glyph glyph-name="plusminus" unicode="&#xb1;" 
d="M846 427h-303v-207h-86v207h-303v80h303v206h86v-206h303v-80zM846 30h-692v80h692v-80z" />
    <glyph glyph-name="periodcentered" unicode="&#xb7;" 
d="M314 298h-128v128h128v-128z" />
    <glyph glyph-name="Agrave" unicode="&#xf31c;" 
 />
    <glyph glyph-name="Agrave" unicode="&#xc0;" 
 />
    <glyph glyph-name="Aacute" unicode="&#xf31a;" 
 />
    <glyph glyph-name="Aacute" unicode="&#xc1;" 
 />
    <glyph glyph-name="Egrave" unicode="&#xf320;" 
 />
    <glyph glyph-name="Egrave" unicode="&#xc8;" 
 />
    <glyph glyph-name="Eacute" unicode="&#xf31e;" 
 />
    <glyph glyph-name="Eacute" unicode="&#xc9;" 
 />
    <glyph glyph-name="Ecircumflex" unicode="&#xf329;" 
 />
    <glyph glyph-name="Ecircumflex" unicode="&#xca;" 
 />
    <glyph glyph-name="Ograve" unicode="&#xf324;" 
 />
    <glyph glyph-name="Ograve" unicode="&#xd2;" 
 />
    <glyph glyph-name="Oacute" unicode="&#xf322;" 
 />
    <glyph glyph-name="Oacute" unicode="&#xd3;" 
 />
    <glyph glyph-name="multiply" unicode="&#xd7;" 
d="M826 104l-59 -59l-267 267l-267 -267l-59 59l267 267l-267 267l59 59l267 -267l267 267l59 -59l-267 -267z" />
    <glyph glyph-name="agrave" unicode="&#xf32d;" 
 />
    <glyph glyph-name="agrave" unicode="&#xe0;" 
 />
    <glyph glyph-name="aacute" unicode="&#xf32b;" 
 />
    <glyph glyph-name="aacute" unicode="&#xe1;" 
 />
    <glyph glyph-name="egrave" unicode="&#xf332;" 
 />
    <glyph glyph-name="egrave" unicode="&#xe8;" 
 />
    <glyph glyph-name="eacute" unicode="&#xf330;" 
 />
    <glyph glyph-name="eacute" unicode="&#xe9;" 
 />
    <glyph glyph-name="ecircumflex" unicode="&#xf348;" 
 />
    <glyph glyph-name="ecircumflex" unicode="&#xea;" 
 />
    <glyph glyph-name="igrave" unicode="&#xf336;" 
 />
    <glyph glyph-name="igrave" unicode="&#xec;" 
 />
    <glyph glyph-name="iacute" unicode="&#xf334;" 
 />
    <glyph glyph-name="iacute" unicode="&#xed;" 
 />
    <glyph glyph-name="ograve" unicode="&#xf33a;" 
 />
    <glyph glyph-name="ograve" unicode="&#xf2;" 
 />
    <glyph glyph-name="oacute" unicode="&#xf338;" 
 />
    <glyph glyph-name="oacute" unicode="&#xf3;" 
 />
    <glyph glyph-name="divide" unicode="&#xf7;" 
d="M564 555h-128v128h128v-128zM846 331h-692v80h692v-80zM564 61h-128v128h128v-128z" />
    <glyph glyph-name="oslash" unicode="&#xf845;" 
 />
    <glyph glyph-name="oslash" unicode="&#xf8;" 
 />
    <glyph glyph-name="ugrave" unicode="&#xf33e;" 
 />
    <glyph glyph-name="ugrave" unicode="&#xf9;" 
 />
    <glyph glyph-name="uacute" unicode="&#xf33c;" 
 />
    <glyph glyph-name="uacute" unicode="&#xfa;" 
 />
    <glyph glyph-name="udieresis" unicode="&#xf343;" 
 />
    <glyph glyph-name="udieresis" unicode="&#xfc;" 
 />
    <glyph glyph-name="Amacron" unicode="&#xf319;" 
 />
    <glyph glyph-name="Amacron" unicode="&#x100;" 
 />
    <glyph glyph-name="amacron" unicode="&#xf32a;" 
 />
    <glyph glyph-name="amacron" unicode="&#x101;" 
 />
    <glyph glyph-name="Emacron" unicode="&#xf31d;" 
 />
    <glyph glyph-name="Emacron" unicode="&#x112;" 
 />
    <glyph glyph-name="emacron" unicode="&#xf32f;" 
 />
    <glyph glyph-name="emacron" unicode="&#x113;" 
 />
    <glyph glyph-name="Ecaron" unicode="&#xf31f;" 
 />
    <glyph glyph-name="Ecaron" unicode="&#x11a;" 
 />
    <glyph glyph-name="ecaron" unicode="&#xf331;" 
 />
    <glyph glyph-name="ecaron" unicode="&#x11b;" 
 />
    <glyph glyph-name="imacron" unicode="&#xf333;" 
 />
    <glyph glyph-name="imacron" unicode="&#x12b;" 
 />
    <glyph glyph-name="eng" unicode="&#xf846;" 
 />
    <glyph glyph-name="eng" unicode="&#x14b;" 
 />
    <glyph glyph-name="Omacron" unicode="&#xf321;" 
 />
    <glyph glyph-name="Omacron" unicode="&#x14c;" 
 />
    <glyph glyph-name="omacron" unicode="&#xf337;" 
 />
    <glyph glyph-name="omacron" unicode="&#x14d;" 
 />
    <glyph glyph-name="oe" unicode="&#xf844;" 
 />
    <glyph glyph-name="oe" unicode="&#x153;" 
 />
    <glyph glyph-name="umacron" unicode="&#xf33b;" 
 />
    <glyph glyph-name="umacron" unicode="&#x16b;" 
 />
    <glyph glyph-name="uni01CD" unicode="&#xf31b;" 
 />
    <glyph glyph-name="uni01CD" unicode="&#x1cd;" 
 />
    <glyph glyph-name="uni01CE" unicode="&#xf32c;" 
 />
    <glyph glyph-name="uni01CE" unicode="&#x1ce;" 
 />
    <glyph glyph-name="uni01D0" unicode="&#xf335;" 
 />
    <glyph glyph-name="uni01D0" unicode="&#x1d0;" 
 />
    <glyph glyph-name="uni01D1" unicode="&#xf323;" 
 />
    <glyph glyph-name="uni01D1" unicode="&#x1d1;" 
 />
    <glyph glyph-name="uni01D2" unicode="&#xf339;" 
 />
    <glyph glyph-name="uni01D2" unicode="&#x1d2;" 
 />
    <glyph glyph-name="uni01D4" unicode="&#xf33d;" 
 />
    <glyph glyph-name="uni01D4" unicode="&#x1d4;" 
 />
    <glyph glyph-name="uni01D6" unicode="&#xf33f;" 
 />
    <glyph glyph-name="uni01D6" unicode="&#x1d6;" 
 />
    <glyph glyph-name="uni01D8" unicode="&#xf340;" 
 />
    <glyph glyph-name="uni01D8" unicode="&#x1d8;" 
 />
    <glyph glyph-name="uni01DA" unicode="&#xf341;" 
 />
    <glyph glyph-name="uni01DA" unicode="&#x1da;" 
 />
    <glyph glyph-name="uni01DC" unicode="&#xf342;" 
 />
    <glyph glyph-name="uni01DC" unicode="&#x1dc;" 
 />
    <glyph glyph-name="uni0250" unicode="&#xf840;" 
 />
    <glyph glyph-name="uni0250" unicode="&#x250;" 
 />
    <glyph glyph-name="uni0251" unicode="&#xf32e;" 
 />
    <glyph glyph-name="uni0251" unicode="&#x251;" 
 />
    <glyph glyph-name="uni0254" unicode="&#xf842;" 
 />
    <glyph glyph-name="uni0254" unicode="&#x254;" 
 />
    <glyph glyph-name="uni025B" unicode="&#xf841;" 
 />
    <glyph glyph-name="uni025B" unicode="&#x25b;" 
 />
    <glyph glyph-name="uni0261" unicode="&#xf349;" 
 />
    <glyph glyph-name="uni0261" unicode="&#x261;" 
 />
    <glyph glyph-name="uni026A" unicode="&#xf848;" 
 />
    <glyph glyph-name="uni026A" unicode="&#x26a;" 
 />
    <glyph glyph-name="uni0275" unicode="&#xf843;" 
 />
    <glyph glyph-name="uni0275" unicode="&#x275;" 
 />
    <glyph glyph-name="uni0283" unicode="&#xf83f;" 
 />
    <glyph glyph-name="uni0283" unicode="&#x283;" 
 />
    <glyph glyph-name="uni028A" unicode="&#xf847;" 
 />
    <glyph glyph-name="uni028A" unicode="&#x28a;" 
 />
    <glyph glyph-name="circumflex" unicode="&#xff3e;" 
d="M688 761h-88l-98 45l-102 -45h-88l126 99h124z" />
    <glyph glyph-name="circumflex" unicode="&#xf6e9;" 
d="M688 761h-88l-98 45l-102 -45h-88l126 99h124z" />
    <glyph glyph-name="circumflex" unicode="&#x2c6;" 
d="M688 761h-88l-98 45l-102 -45h-88l126 99h124z" />
    <glyph glyph-name="caron" unicode="&#x30c;" 
d="M681 472l-181 -271l-181 271l33 45l148 -182l148 182z" />
    <glyph glyph-name="caron" unicode="&#x2c7;" 
d="M681 472l-181 -271l-181 271l33 45l148 -182l148 182z" />
    <glyph glyph-name="uni02CA" unicode="&#x2ca;" 
d="M680 518l-252 -317h-108l290 317h70z" />
    <glyph glyph-name="uni02CB" unicode="&#x2cb;" 
d="M680 201h-70l-290 317h108z" />
    <glyph glyph-name="uni02CD" unicode="&#x2cd;" 
d="M1000 -140h-1000v94h1000v-94z" />
    <glyph glyph-name="dotaccent" unicode="&#x2d9;" 
d="M623 360q0 -51 -36 -87t-87 -36t-87 36t-36 87t36 87t87 36t87 -36t36 -87z" />
    <glyph glyph-name="Alpha" unicode="&#x391;" 
d="M850 8h-99l-84 204h-334l-84 -204h-99l302 728h96zM630 298l-130 316l-130 -316h260z" />
    <glyph glyph-name="Beta" unicode="&#x392;" 
d="M762 211q0 -103 -94 -158q-76 -45 -176 -45h-254v728h260q244 0 244 -189q0 -100 -86 -156q106 -55 106 -180zM646 547q0 103 -151 103h-165v-220h145q77 0 124 32q47 33 47 85zM666 211q0 67 -54 103q-48 30 -123 30h-159v-250h159q77 0 127 34q50 33 50 83z" />
    <glyph glyph-name="Gamma" unicode="&#x393;" 
d="M742 650h-391v-642h-93v728h484v-86z" />
    <glyph glyph-name="uni0394" unicode="&#x394;" 
d="M842 8h-684l342 736zM702 94l-202 431l-202 -431h404z" />
    <glyph glyph-name="Epsilon" unicode="&#x395;" 
d="M730 8h-460v728h460v-86h-367v-228h325v-86h-325v-242h367v-86z" />
    <glyph glyph-name="Zeta" unicode="&#x396;" 
d="M755 8h-510v86l401 556h-389v86h498v-85l-401 -557h401v-86z" />
    <glyph glyph-name="Eta" unicode="&#x397;" 
d="M781 8h-93v322h-376v-322h-93v728h93v-320h376v320h93v-728z" />
    <glyph glyph-name="Theta" unicode="&#x398;" 
d="M846 373q0 -155 -97 -263q-98 -110 -249 -110t-249 110q-97 106 -97 263q0 156 98 263q98 108 248 108q149 0 248 -108q98 -109 98 -263zM750 373q0 128 -74 208q-71 77 -176 77q-107 0 -176 -77q-74 -78 -74 -208q0 -129 74 -206q69 -73 176 -73t176 73q74 79 74 206z
M667 254h-93v70h-149v-70h-93v230h93v-74h149v74h93v-230z" />
    <glyph glyph-name="Iota" unicode="&#x399;" 
d="M547 8h-94v728h94v-728z" />
    <glyph glyph-name="Kappa" unicode="&#x39a;" 
d="M796 8h-123l-293 338l-83 -83v-255h-93v728h93v-349l351 349h121l-324 -324z" />
    <glyph glyph-name="Lambda" unicode="&#x39b;" 
d="M850 8h-98l-252 608l-252 -608h-98l302 728h96z" />
    <glyph glyph-name="Mu" unicode="&#x39c;" 
d="M871 8h-93v559l-233 -559h-90l-233 559v-559h-93v728h117l254 -613l254 613h117v-728z" />
    <glyph glyph-name="Nu" unicode="&#x39d;" 
d="M792 8h-103l-388 581v-581h-93v728h103l388 -581v581h93v-728z" />
    <glyph glyph-name="Xi" unicode="&#x39e;" 
d="M752 651h-504v85h504v-85zM712 355h-424v86h424v-86zM752 8h-504v85h504v-85z" />
    <glyph glyph-name="Omicron" unicode="&#x39f;" 
d="M814 373q0 -160 -81 -263q-86 -110 -233 -110q-148 0 -233 110q-81 103 -81 263q0 159 81 262q86 109 233 109q145 0 233 -109q81 -103 81 -262zM718 373q0 129 -60 205q-60 77 -158 77q-99 0 -158 -77q-60 -76 -60 -205t60 -207t158 -78t158 78q60 76 60 207z" />
    <glyph glyph-name="Pi" unicode="&#x3a0;" 
d="M765 8h-92v647h-346v-647h-92v728h530v-728z" />
    <glyph glyph-name="Rho" unicode="&#x3a1;" 
d="M758 532q0 -95 -70 -150q-71 -55 -183 -55h-169v-319h-94v728h263q113 0 182 -51q71 -54 71 -153zM661 532q0 118 -159 118h-166v-237h166q159 0 159 119z" />
    <glyph glyph-name="Sigma" unicode="&#x3a3;" 
d="M770 8h-540v87l282 283l-282 282v76h522v-85h-386l275 -272l-287 -286h416v-85z" />
    <glyph glyph-name="Tau" unicode="&#x3a4;" 
d="M788 650h-241v-642h-94v642h-241v86h576v-86z" />
    <glyph glyph-name="Upsilon" unicode="&#x3a5;" 
d="M836 736l-289 -390v-338h-93v337l-290 391h113l223 -301l225 301h111z" />
    <glyph glyph-name="Phi" unicode="&#x3a6;" 
d="M831 369q0 -261 -285 -285v-76h-92v76q-285 24 -285 285q0 260 285 284v83h92v-83q285 -24 285 -284zM741 369q0 181 -195 202v-405q195 18 195 203zM454 166v405q-195 -21 -195 -202q0 -185 195 -203z" />
    <glyph glyph-name="Chi" unicode="&#x3a7;" 
d="M843 8h-113l-229 311l-230 -311h-114l287 388l-251 340h111l197 -265l195 265h112l-251 -340z" />
    <glyph glyph-name="Psi" unicode="&#x3a8;" 
d="M835 524q0 -172 -79 -254q-70 -73 -210 -82v-180h-92v180q-140 9 -210 82q-79 80 -79 254v212h92v-212q0 -132 48 -189q44 -53 149 -62v463h92v-463q105 9 149 62q48 57 48 189v212h92v-212z" />
    <glyph glyph-name="uni03A9" unicode="&#x3a9;" 
d="M838 406q0 -211 -200 -313h152v-85h-244v122q98 40 146 103q51 68 51 173q0 116 -67 186q-70 68 -176 68q-108 0 -176 -68q-67 -68 -67 -186q0 -106 51 -173q46 -62 146 -103v-122h-244v85h152q-200 101 -200 313q0 155 97 248q93 90 241 90t241 -90q97 -94 97 -248z" />
    <glyph glyph-name="alpha" unicode="&#x3b1;" 
d="M785 0h-84q-71 0 -90 74q-70 -74 -156 -74q-96 0 -163 64q-77 71 -77 194q0 101 60 173q66 80 182 80q85 0 152 -50v42h89v-377q0 -32 20 -32h67v-94zM609 258q0 66 -36 114q-42 53 -116 53q-70 0 -110 -49q-36 -45 -36 -118q0 -84 45 -132q40 -44 99 -44q62 0 108 53
q46 54 46 123z" />
    <glyph glyph-name="beta" unicode="&#x3b2;" 
d="M751 219q0 -104 -75 -164q-67 -55 -161 -55q-110 0 -178 74v-214h-88v632q0 116 61 184q60 68 167 68q87 0 148 -59q54 -55 54 -131q0 -80 -74 -137q61 -19 103 -72q43 -58 43 -126zM655 219q0 131 -154 131h-50v86h39q38 0 66 33q27 33 27 85q0 39 -25 70q-31 34 -81 34
q-140 0 -140 -166v-282q51 -124 178 -124q60 0 100 37t40 96z" />
    <glyph glyph-name="gamma" unicode="&#x3b3;" 
d="M730 503l-167 -395v-248h-93v251l-134 282q-15 32 -66 32v86q64 -1 94 -15q28 -15 49 -56l102 -212l117 275h98z" />
    <glyph glyph-name="delta" unicode="&#x3b4;" 
d="M755 249q0 -91 -68 -167q-75 -82 -187 -82q-99 0 -176 74q-79 72 -79 171q0 90 55 158q59 74 163 96l-174 155v82h365v-86h-229q79 -68 195 -164q74 -63 98 -100q37 -59 37 -137zM659 249q0 69 -39 116q-42 48 -114 48q-78 0 -122 -47q-43 -47 -43 -121q0 -63 49 -111
q48 -48 110 -48q73 0 117 50q42 46 42 113z" />
    <glyph glyph-name="epsilon" unicode="&#x3b5;" 
d="M683 41q-78 -41 -176 -41q-76 0 -128 34q-62 38 -62 112q0 73 80 112q-73 51 -73 114q0 72 63 109q51 30 126 30q60 0 135 -27l-40 -77q-58 18 -95 18q-93 0 -93 -56q0 -70 97 -70h76v-86h-64q-116 0 -116 -67q0 -27 23 -41q23 -19 71 -19q75 0 132 28z" />
    <glyph glyph-name="zeta" unicode="&#x3b6;" 
d="M693 20q0 -49 -43 -160h-96q43 89 43 160q0 22 -42 30q-32 3 -97 15q-151 33 -151 200q0 190 229 385h-197v86h329v-80q-265 -181 -265 -391q0 -70 42 -98q27 -19 98 -27q72 -9 101 -26q49 -29 49 -94z" />
    <glyph glyph-name="eta" unicode="&#x3b7;" 
d="M748 -140h-93v477q0 88 -80 88q-61 0 -102 -71v-346h-93v377q0 33 -10 33q-15 0 -60 -53l-58 46q39 49 61 65q37 28 80 28q42 0 65 -49q58 56 131 56q71 0 115 -45q44 -46 44 -125v-481z" />
    <glyph glyph-name="theta" unicode="&#x3b8;" 
d="M742 373q0 -179 -64 -277q-63 -96 -178 -96t-178 96q-64 95 -64 277q0 167 61 267q65 104 181 104q115 0 181 -104q61 -102 61 -267zM646 425q-18 233 -146 233q-130 0 -148 -233h294zM646 339h-294q10 -253 148 -253q134 0 146 253z" />
    <glyph glyph-name="iota" unicode="&#x3b9;" 
d="M586 8h-77q-95 0 -95 108v387h93v-387q0 -22 19 -22h60v-86z" />
    <glyph glyph-name="kappa" unicode="&#x3ba;" 
d="M713 8h-113l-173 226l-49 -45v-181h-91v495h91v-190l203 190h128l-217 -207z" />
    <glyph glyph-name="lambda" unicode="&#x3bb;" 
d="M779 8h-59q-62 0 -97 27q-28 21 -48 73l-104 266l-152 -366h-98l203 487l-46 115q-17 40 -44 40h-69v86h70q90 0 126 -90l198 -502q12 -32 23 -40q11 -10 42 -10h55v-86z" />
    <glyph glyph-name="uni03BC" unicode="&#x3bc;" 
d="M746 4q-106 1 -145 61q-58 -65 -139 -65q-64 0 -115 45v-185h-93v643h93v-304q0 -55 33 -85q29 -28 82 -28q107 0 107 113v304h93v-329q0 -48 13 -62q16 -22 71 -22v-86z" />
    <glyph glyph-name="nu" unicode="&#x3bd;" 
d="M731 503l-186 -495h-90l-186 495h98l134 -356l134 356h96z" />
    <glyph glyph-name="xi" unicode="&#x3be;" 
d="M694 10q0 -46 -42 -150h-101q47 94 47 150q0 23 -41 40q-37 12 -109 38q-66 23 -99 58q-43 42 -43 110q0 56 41 107q38 47 95 74q-88 52 -88 124q0 49 40 89h-74v86h350v-86h-123q-42 0 -70 -23q-27 -24 -27 -66q0 -36 34 -61q33 -27 80 -27h74v-86h-92q-64 0 -104 -39
t-40 -92q0 -42 33 -66q22 -18 80 -36q99 -34 117 -43q62 -36 62 -101z" />
    <glyph glyph-name="omicron" unicode="&#x3bf;" 
d="M745 250q0 -115 -74 -184q-71 -66 -171 -66q-102 0 -171 66q-74 68 -74 184q0 112 68 186q67 75 177 75q108 0 177 -75q68 -76 68 -186zM649 250q0 79 -39 127q-40 48 -110 48q-71 0 -110 -48t-39 -127t41 -120q38 -44 108 -44q68 0 108 44q41 43 41 120z" />
    <glyph glyph-name="pi" unicode="&#x3c0;" 
d="M790 8h-73q-98 0 -98 115v294h-224v-409h-93v409h-92v86h580v-86h-78v-295q0 -18 2 -20q3 -8 19 -8h57v-86z" />
    <glyph glyph-name="rho" unicode="&#x3c1;" 
d="M750 250q0 -112 -72 -181t-179 -69q-97 0 -160 60v-200h-89v380q0 119 68 194q68 77 181 77t182 -75t69 -186zM653 250q0 79 -40 128q-41 47 -114 47q-75 0 -114 -47q-40 -47 -40 -128q0 -74 43 -118q42 -46 111 -46q71 0 112 44q42 42 42 120z" />
    <glyph glyph-name="sigma" unicode="&#x3c3;" 
d="M781 417h-122q50 -73 50 -167q0 -114 -73 -184q-69 -66 -170 -66q-103 0 -172 66q-75 69 -75 184q0 111 69 186t178 75q5 0 64 -8h251v-86zM613 250q0 80 -39 128q-39 47 -108 47q-72 0 -111 -48q-40 -47 -40 -127q0 -79 41 -120q41 -44 110 -44q68 0 108 44
q39 42 39 120z" />
    <glyph glyph-name="tau" unicode="&#x3c4;" 
d="M727 417h-165v-294q0 -29 20 -29h62v-86h-77q-98 0 -98 115v294h-196v86h454v-86z" />
    <glyph glyph-name="upsilon" unicode="&#x3c5;" 
d="M731 221q0 -221 -231 -221t-231 221v282h93v-282q0 -75 28 -103q29 -32 110 -32t110 32q28 30 28 103v282h93v-282z" />
    <glyph glyph-name="phi" unicode="&#x3c6;" 
d="M783 253q0 -120 -65 -187q-62 -64 -171 -71v-135h-93v135q-112 9 -171 71q-66 66 -66 187q0 120 67 188q60 62 170 74v149h93v-149q108 -12 170 -74q66 -69 66 -188zM687 253q0 155 -140 176v-349q75 9 107 50q33 42 33 123zM454 80v349q-141 -21 -141 -176
q0 -157 141 -173z" />
    <glyph glyph-name="chi" unicode="&#x3c7;" 
d="M748 -140h-16q-54 0 -86 23q-25 19 -51 65l-93 166l-145 -247h-105l199 339q-8 14 -21.5 38.5t-35 63.5t-40.5 74q-20 35 -45 35h-45v86h48q50 0 81 -26q19 -16 53 -75l59 -105l122 206h103l-174 -298l121 -217q15 -28 27 -35q14 -7 44 -7v-86z" />
    <glyph glyph-name="psi" unicode="&#x3c8;" 
d="M808 271q0 -250 -261 -271v-140h-93v140q-262 21 -262 271v232h93v-232q0 -89 34 -129q39 -47 135 -56v578h93v-578q96 9 134 56q34 42 34 129v232h93v-232z" />
    <glyph glyph-name="omega" unicode="&#x3c9;" 
d="M860 235q0 -94 -55 -163q-60 -72 -153 -72q-100 0 -152 79q-55 -79 -152 -79q-94 0 -153 72q-55 67 -55 163q0 65 34 145q28 69 72 123l72 -47q-33 -42 -57 -105q-25 -65 -25 -116q0 -71 32 -109q30 -40 80 -40q52 0 80 37q25 33 25 83v139h93v-139q0 -53 26 -83
q27 -37 80 -37q49 0 80 40q32 40 32 109q0 47 -25 116q-24 63 -57 105l72 47q42 -54 72 -123q34 -83 34 -145z" />
    <glyph glyph-name="afii10023" unicode="&#xf7a6;" 
d="M658 758h-102v102h102v-102zM447 758h-102v102h102v-102zM730 8h-460v728h460v-86h-367v-228h325v-86h-325v-242h367v-86z" />
    <glyph glyph-name="afii10023" unicode="&#x401;" 
d="M658 758h-102v102h102v-102zM447 758h-102v102h102v-102zM730 8h-460v728h460v-86h-367v-228h325v-86h-325v-242h367v-86z" />
    <glyph glyph-name="afii10017" unicode="&#xf7a0;" 
d="M850 8h-99l-84 204h-334l-84 -204h-99l302 728h96zM630 298l-130 316l-130 -316h260z" />
    <glyph glyph-name="afii10017" unicode="&#x410;" 
d="M850 8h-99l-84 204h-334l-84 -204h-99l302 728h96zM630 298l-130 316l-130 -316h260z" />
    <glyph glyph-name="afii10018" unicode="&#xf7a1;" 
d="M772 219q0 -114 -83 -167q-66 -44 -180 -44h-281v728h484v-86h-391v-219h188q263 0 263 -212zM676 219q0 63 -40 95q-42 31 -130 31h-185v-251h185q170 0 170 125z" />
    <glyph glyph-name="afii10018" unicode="&#x411;" 
d="M772 219q0 -114 -83 -167q-66 -44 -180 -44h-281v728h484v-86h-391v-219h188q263 0 263 -212zM676 219q0 63 -40 95q-42 31 -130 31h-185v-251h185q170 0 170 125z" />
    <glyph glyph-name="afii10019" unicode="&#xf7a2;" 
d="M762 211q0 -103 -94 -158q-76 -45 -176 -45h-254v728h260q244 0 244 -189q0 -100 -86 -156q106 -55 106 -180zM646 547q0 103 -151 103h-165v-220h145q77 0 124 32q47 33 47 85zM666 211q0 67 -54 103q-48 30 -123 30h-159v-250h159q77 0 127 34q50 33 50 83z" />
    <glyph glyph-name="afii10019" unicode="&#x412;" 
d="M762 211q0 -103 -94 -158q-76 -45 -176 -45h-254v728h260q244 0 244 -189q0 -100 -86 -156q106 -55 106 -180zM646 547q0 103 -151 103h-165v-220h145q77 0 124 32q47 33 47 85zM666 211q0 67 -54 103q-48 30 -123 30h-159v-250h159q77 0 127 34q50 33 50 83z" />
    <glyph glyph-name="afii10020" unicode="&#xf7a3;" 
d="M742 650h-391v-642h-93v728h484v-86z" />
    <glyph glyph-name="afii10020" unicode="&#x413;" 
d="M742 650h-391v-642h-93v728h484v-86z" />
    <glyph glyph-name="afii10021" unicode="&#xf7a4;" 
d="M873 -140h-93v148h-560v-148h-93v234h82q70 134 120 314q47 170 60 328h396v-642h88v-234zM692 94v556h-224q-34 -281 -162 -556h386z" />
    <glyph glyph-name="afii10021" unicode="&#x414;" 
d="M873 -140h-93v148h-560v-148h-93v234h82q70 134 120 314q47 170 60 328h396v-642h88v-234zM692 94v556h-224q-34 -281 -162 -556h386z" />
    <glyph glyph-name="afii10022" unicode="&#xf7a5;" 
d="M730 8h-460v728h460v-86h-367v-228h325v-86h-325v-242h367v-86z" />
    <glyph glyph-name="afii10022" unicode="&#x415;" 
d="M730 8h-460v728h460v-86h-367v-228h325v-86h-325v-242h367v-86z" />
    <glyph glyph-name="afii10024" unicode="&#xf7a7;" 
d="M898 8h-95q-31 82 -81 206q-29 61 -62 88q-42 33 -114 42v-336h-93v336q-73 -9 -114 -42q-31 -26 -61 -88q-31 -68 -82 -206h-94q12 34 26 73.5t17 47.5q26 69 52 122q51 98 123 133q-66 42 -90 138q-13 52 -25 82q-21 48 -55 48h-39v84h34q86 0 125 -57q19 -31 45 -131
q28 -116 130 -116h8v304h93v-304h9q100 0 128 115q24 99 46 131q40 58 126 58h34v-84h-39q-37 0 -58 -48q-9 -18 -25 -82q-24 -96 -87 -138q72 -35 123 -133q23 -47 95 -243z" />
    <glyph glyph-name="afii10024" unicode="&#x416;" 
d="M898 8h-95q-31 82 -81 206q-29 61 -62 88q-42 33 -114 42v-336h-93v336q-73 -9 -114 -42q-31 -26 -61 -88q-31 -68 -82 -206h-94q12 34 26 73.5t17 47.5q26 69 52 122q51 98 123 133q-66 42 -90 138q-13 52 -25 82q-21 48 -55 48h-39v84h34q86 0 125 -57q19 -31 45 -131
q28 -116 130 -116h8v304h93v-304h9q100 0 128 115q24 99 46 131q40 58 126 58h34v-84h-39q-37 0 -58 -48q-9 -18 -25 -82q-24 -96 -87 -138q72 -35 123 -133q23 -47 95 -243z" />
    <glyph glyph-name="afii10025" unicode="&#xf7a8;" 
d="M758 215q0 -99 -82 -160q-74 -55 -185 -55q-132 0 -249 59l36 82q105 -52 213 -52q81 0 128 38q43 35 43 88q0 68 -64 109q-54 33 -127 33q-22 0 -73 -3v90q56 -4 67 -4q77 0 121 32q45 30 45 80q0 42 -35 71q-40 32 -111 32q-89 0 -198 -53l-37 81q127 61 235 61
q98 0 167 -48q75 -54 75 -144q0 -46 -25 -88q-25 -40 -66 -61q122 -54 122 -188z" />
    <glyph glyph-name="afii10025" unicode="&#x417;" 
d="M758 215q0 -99 -82 -160q-74 -55 -185 -55q-132 0 -249 59l36 82q105 -52 213 -52q81 0 128 38q43 35 43 88q0 68 -64 109q-54 33 -127 33q-22 0 -73 -3v90q56 -4 67 -4q77 0 121 32q45 30 45 80q0 42 -35 71q-40 32 -111 32q-89 0 -198 -53l-37 81q127 61 235 61
q98 0 167 -48q75 -54 75 -144q0 -46 -25 -88q-25 -40 -66 -61q122 -54 122 -188z" />
    <glyph glyph-name="afii10026" unicode="&#xf7a9;" 
d="M787 8h-93v569l-391 -569h-90v728h93v-574l392 574h89v-728z" />
    <glyph glyph-name="afii10026" unicode="&#x418;" 
d="M787 8h-93v569l-391 -569h-90v728h93v-574l392 574h89v-728z" />
    <glyph glyph-name="afii10027" unicode="&#xf7aa;" 
d="M661 859q-18 -131 -161 -131q-145 0 -161 131h69q0 -39 29 -60q24 -21 63 -21q38 0 64 22q27 21 28 59h69zM787 8h-93v569l-391 -569h-90v728h93v-574l392 574h89v-728z" />
    <glyph glyph-name="afii10027" unicode="&#x419;" 
d="M661 859q-18 -131 -161 -131q-145 0 -161 131h69q0 -39 29 -60q24 -21 63 -21q38 0 64 22q27 21 28 59h69zM787 8h-93v569l-391 -569h-90v728h93v-574l392 574h89v-728z" />
    <glyph glyph-name="afii10028" unicode="&#xf7ab;" 
d="M796 8h-123l-293 338l-83 -83v-255h-93v728h93v-349l351 349h121l-324 -324z" />
    <glyph glyph-name="afii10028" unicode="&#x41a;" 
d="M796 8h-123l-293 338l-83 -83v-255h-93v728h93v-349l351 349h121l-324 -324z" />
    <glyph glyph-name="afii10029" unicode="&#xf7ac;" 
d="M816 8h-93v644h-343v-478q0 -90 -46 -128q-49 -38 -150 -38v87q65 0 86 18q17 15 17 61v562h529v-728z" />
    <glyph glyph-name="afii10029" unicode="&#x41b;" 
d="M816 8h-93v644h-343v-478q0 -90 -46 -128q-49 -38 -150 -38v87q65 0 86 18q17 15 17 61v562h529v-728z" />
    <glyph glyph-name="afii10030" unicode="&#xf7ad;" 
d="M870 8h-92v569l-233 -569h-90l-233 569v-569h-92v728h121l249 -613l249 613h121v-728z" />
    <glyph glyph-name="afii10030" unicode="&#x41c;" 
d="M870 8h-92v569l-233 -569h-90l-233 569v-569h-92v728h121l249 -613l249 613h121v-728z" />
    <glyph glyph-name="afii10031" unicode="&#xf7ae;" 
d="M781 8h-93v322h-376v-322h-93v728h93v-320h376v320h93v-728z" />
    <glyph glyph-name="afii10031" unicode="&#x41d;" 
d="M781 8h-93v322h-376v-322h-93v728h93v-320h376v320h93v-728z" />
    <glyph glyph-name="afii10032" unicode="&#xf7af;" 
d="M814 373q0 -160 -81 -263q-86 -110 -233 -110q-148 0 -233 110q-81 103 -81 263q0 159 81 262q86 109 233 109q145 0 233 -109q81 -103 81 -262zM718 373q0 129 -60 205q-60 77 -158 77q-99 0 -158 -77q-60 -76 -60 -205t60 -207t158 -78t158 78q60 76 60 207z" />
    <glyph glyph-name="afii10032" unicode="&#x41e;" 
d="M814 373q0 -160 -81 -263q-86 -110 -233 -110q-148 0 -233 110q-81 103 -81 263q0 159 81 262q86 109 233 109q145 0 233 -109q81 -103 81 -262zM718 373q0 129 -60 205q-60 77 -158 77q-99 0 -158 -77q-60 -76 -60 -205t60 -207t158 -78t158 78q60 76 60 207z" />
    <glyph glyph-name="afii10033" unicode="&#xf7b0;" 
d="M765 8h-93v644h-344v-644h-93v728h530v-728z" />
    <glyph glyph-name="afii10033" unicode="&#x41f;" 
d="M765 8h-93v644h-344v-644h-93v728h530v-728z" />
    <glyph glyph-name="afii10034" unicode="&#xf7b1;" 
d="M758 532q0 -95 -70 -150q-71 -55 -183 -55h-169v-319h-94v728h263q113 0 182 -51q71 -54 71 -153zM661 532q0 118 -159 118h-166v-237h166q159 0 159 119z" />
    <glyph glyph-name="afii10034" unicode="&#x420;" 
d="M758 532q0 -95 -70 -150q-71 -55 -183 -55h-169v-319h-94v728h263q113 0 182 -51q71 -54 71 -153zM661 532q0 118 -159 118h-166v-237h166q159 0 159 119z" />
    <glyph glyph-name="afii10035" unicode="&#xf7b2;" 
d="M794 70q-113 -70 -242 -70q-159 0 -254 104q-92 98 -92 255q0 165 89 270q97 115 258 115q110 0 238 -67l-37 -76q-105 54 -201 54q-121 0 -187 -83q-64 -79 -64 -213q0 -124 64 -195q66 -75 186 -75q103 0 209 61z" />
    <glyph glyph-name="afii10035" unicode="&#x421;" 
d="M794 70q-113 -70 -242 -70q-159 0 -254 104q-92 98 -92 255q0 165 89 270q97 115 258 115q110 0 238 -67l-37 -76q-105 54 -201 54q-121 0 -187 -83q-64 -79 -64 -213q0 -124 64 -195q66 -75 186 -75q103 0 209 61z" />
    <glyph glyph-name="afii10036" unicode="&#xf7b3;" 
d="M788 650h-241v-642h-94v642h-241v86h576v-86z" />
    <glyph glyph-name="afii10036" unicode="&#x422;" 
d="M788 650h-241v-642h-94v642h-241v86h576v-86z" />
    <glyph glyph-name="afii10037" unicode="&#xf7b4;" 
d="M791 736l-329 -631q-51 -97 -133 -97h-79v87h62q25 0 36 7q15 8 34 43l82 157l-255 434h104l197 -340l180 340h101z" />
    <glyph glyph-name="afii10037" unicode="&#x423;" 
d="M791 736l-329 -631q-51 -97 -133 -97h-79v87h62q25 0 36 7q15 8 34 43l82 157l-255 434h104l197 -340l180 340h101z" />
    <glyph glyph-name="afii10038" unicode="&#xf7b5;" 
d="M828 369q0 -261 -282 -285v-76h-93v76q-281 24 -281 285q0 260 281 284v83h93v-83q282 -24 282 -284zM732 369q0 181 -186 200v-398q186 18 186 198zM453 171v398q-185 -18 -185 -199q0 -183 185 -199z" />
    <glyph glyph-name="afii10038" unicode="&#x424;" 
d="M828 369q0 -261 -282 -285v-76h-93v76q-281 24 -281 285q0 260 281 284v83h93v-83q282 -24 282 -284zM732 369q0 181 -186 200v-398q186 18 186 198zM453 171v398q-185 -18 -185 -199q0 -183 185 -199z" />
    <glyph glyph-name="afii10039" unicode="&#xf7b6;" 
d="M843 8h-113l-229 311l-230 -311h-114l287 388l-251 340h111l197 -265l195 265h112l-251 -340z" />
    <glyph glyph-name="afii10039" unicode="&#x425;" 
d="M843 8h-113l-229 311l-230 -311h-114l287 388l-251 340h111l197 -265l195 265h112l-251 -340z" />
    <glyph glyph-name="afii10040" unicode="&#xf7b7;" 
d="M818 -140h-93v148h-543v728h93v-642h387v642h93v-642h63v-234z" />
    <glyph glyph-name="afii10040" unicode="&#x426;" 
d="M818 -140h-93v148h-543v728h93v-642h387v642h93v-642h63v-234z" />
    <glyph glyph-name="afii10041" unicode="&#xf7b8;" 
d="M785 8h-93v397q-147 -137 -279 -137q-198 0 -198 218v250h93v-250q0 -74 24 -101q24 -28 81 -28q62 0 137 41q83 44 142 122v216h93v-728z" />
    <glyph glyph-name="afii10041" unicode="&#x427;" 
d="M785 8h-93v397q-147 -137 -279 -137q-198 0 -198 218v250h93v-250q0 -74 24 -101q24 -28 81 -28q62 0 137 41q83 44 142 122v216h93v-728z" />
    <glyph glyph-name="afii10042" unicode="&#xf7b9;" 
d="M835 8h-670v728h93v-642h196v642h93v-642h195v642h93v-728z" />
    <glyph glyph-name="afii10042" unicode="&#x428;" 
d="M835 8h-670v728h93v-642h196v642h93v-642h195v642h93v-728z" />
    <glyph glyph-name="afii10043" unicode="&#xf7ba;" 
d="M854 -140h-93v148h-615v728h93v-642h197v642h93v-642h198v642h93v-642h34v-234z" />
    <glyph glyph-name="afii10043" unicode="&#x429;" 
d="M854 -140h-93v148h-615v728h93v-642h197v642h93v-642h198v642h93v-642h34v-234z" />
    <glyph glyph-name="afii10044" unicode="&#xf7bb;" 
d="M828 228q0 -115 -83 -172q-69 -48 -180 -48h-233v642h-160v86h253v-289h140q263 0 263 -219zM732 228q0 133 -172 133h-135v-267h135q172 0 172 134z" />
    <glyph glyph-name="afii10044" unicode="&#x42a;" 
d="M828 228q0 -115 -83 -172q-69 -48 -180 -48h-233v642h-160v86h253v-289h140q263 0 263 -219zM732 228q0 133 -172 133h-135v-267h135q172 0 172 134z" />
    <glyph glyph-name="afii10045" unicode="&#xf7bc;" 
d="M856 8h-93v728h93v-728zM640 228q0 -115 -83 -172q-71 -48 -181 -48h-232v728h93v-289h139q264 0 264 -219zM544 228q0 66 -38 99q-43 34 -133 34h-136v-267h136q171 0 171 134z" />
    <glyph glyph-name="afii10045" unicode="&#x42b;" 
d="M856 8h-93v728h93v-728zM640 228q0 -115 -83 -172q-71 -48 -181 -48h-232v728h93v-289h139q264 0 264 -219zM544 228q0 66 -38 99q-43 34 -133 34h-136v-267h136q171 0 171 134z" />
    <glyph glyph-name="afii10046" unicode="&#xf7bd;" 
d="M745 228q0 -114 -82 -172q-69 -48 -178 -48h-230v728h93v-289h137q260 0 260 -219zM649 228q0 133 -167 133h-134v-267h134q167 0 167 134z" />
    <glyph glyph-name="afii10046" unicode="&#x42c;" 
d="M745 228q0 -114 -82 -172q-69 -48 -178 -48h-230v728h93v-289h137q260 0 260 -219zM649 228q0 133 -167 133h-134v-267h134q167 0 167 134z" />
    <glyph glyph-name="afii10047" unicode="&#xf7be;" 
d="M793 374q0 -187 -117 -289q-97 -85 -230 -85q-118 0 -239 65l43 76q100 -52 196 -52q90 0 156 51q80 63 95 189h-287v86h287q-15 115 -77 177q-63 63 -156 63q-84 0 -198 -54l-35 83q138 60 233 60q142 0 236 -106q93 -105 93 -264z" />
    <glyph glyph-name="afii10047" unicode="&#x42d;" 
d="M793 374q0 -187 -117 -289q-97 -85 -230 -85q-118 0 -239 65l43 76q100 -52 196 -52q90 0 156 51q80 63 95 189h-287v86h287q-15 115 -77 177q-63 63 -156 63q-84 0 -198 -54l-35 83q138 60 233 60q142 0 236 -106q93 -105 93 -264z" />
    <glyph glyph-name="afii10048" unicode="&#xf7bf;" 
d="M915 372q0 -166 -79 -269q-81 -103 -212 -103q-124 0 -200 90q-77 87 -89 241h-157v-323h-93v728h93v-319h158q12 149 90 239q76 88 198 88q130 0 212 -103q79 -105 79 -269zM819 372q0 138 -57 213q-53 70 -138 70q-86 0 -137 -69q-56 -74 -56 -214q0 -142 56 -214
q51 -69 137 -69q87 0 138 69q57 74 57 214z" />
    <glyph glyph-name="afii10048" unicode="&#x42e;" 
d="M915 372q0 -166 -79 -269q-81 -103 -212 -103q-124 0 -200 90q-77 87 -89 241h-157v-323h-93v728h93v-319h158q12 149 90 239q76 88 198 88q130 0 212 -103q79 -105 79 -269zM819 372q0 138 -57 213q-53 70 -138 70q-86 0 -137 -69q-56 -74 -56 -214q0 -142 56 -214
q51 -69 137 -69q87 0 138 69q57 74 57 214z" />
    <glyph glyph-name="afii10049" unicode="&#xf7c0;" 
d="M774 9h-93v302h-137q-19 0 -33 2l-183 -305h-102l195 326q-126 57 -126 188q0 98 69 156t180 58h230v-727zM681 397v253h-137q-79 0 -120 -41q-33 -35 -33 -87q0 -54 35 -86q39 -39 118 -39h137z" />
    <glyph glyph-name="afii10049" unicode="&#x42f;" 
d="M774 9h-93v302h-137q-19 0 -33 2l-183 -305h-102l195 326q-126 57 -126 188q0 98 69 156t180 58h230v-727zM681 397v253h-137q-79 0 -120 -41q-33 -35 -33 -87q0 -54 35 -86q39 -39 118 -39h137z" />
    <glyph glyph-name="afii10065" unicode="&#xf7c1;" 
d="M729 8h-61q-72 0 -81 62q-98 -70 -175 -70q-57 0 -95 32q-46 34 -46 95q0 92 93 143q80 43 222 52v24q0 41 -16 60q-19 19 -58 19q-65 0 -165 -50l-37 81q119 55 202 55q81 0 124 -43q43 -46 43 -122v-240q0 -12 12 -12h38v-86zM586 165v75q-117 -7 -173 -43
q-46 -30 -46 -70q0 -41 45 -41q82 0 174 79z" />
    <glyph glyph-name="afii10065" unicode="&#x430;" 
d="M729 8h-61q-72 0 -81 62q-98 -70 -175 -70q-57 0 -95 32q-46 34 -46 95q0 92 93 143q80 43 222 52v24q0 41 -16 60q-19 19 -58 19q-65 0 -165 -50l-37 81q119 55 202 55q81 0 124 -43q43 -46 43 -122v-240q0 -12 12 -12h38v-86zM586 165v75q-117 -7 -173 -43
q-46 -30 -46 -70q0 -41 45 -41q82 0 174 79z" />
    <glyph glyph-name="afii10066" unicode="&#xf7c2;" 
d="M741 262q0 -104 -57 -177q-66 -85 -182 -85q-120 0 -183 96q-60 92 -60 259q0 163 66 277q67 112 169 112q18 0 66 -10q38 -11 49 -11q25 0 80 21v-86q-49 -21 -78 -21q-25 0 -62 11q-47 10 -55 10q-40 0 -78 -52q-44 -60 -59 -160q70 65 159 65q102 0 165 -74
q60 -70 60 -175zM645 262q0 74 -37 120q-38 43 -100 43q-51 0 -102 -42q-54 -45 -54 -99q0 -73 27 -124q37 -74 123 -74q72 0 111 55q32 47 32 121z" />
    <glyph glyph-name="afii10066" unicode="&#x431;" 
d="M741 262q0 -104 -57 -177q-66 -85 -182 -85q-120 0 -183 96q-60 92 -60 259q0 163 66 277q67 112 169 112q18 0 66 -10q38 -11 49 -11q25 0 80 21v-86q-49 -21 -78 -21q-25 0 -62 11q-47 10 -55 10q-40 0 -78 -52q-44 -60 -59 -160q70 65 159 65q102 0 165 -74
q60 -70 60 -175zM645 262q0 74 -37 120q-38 43 -100 43q-51 0 -102 -42q-54 -45 -54 -99q0 -73 27 -124q37 -74 123 -74q72 0 111 55q32 47 32 121z" />
    <glyph glyph-name="afii10067" unicode="&#xf7c3;" 
d="M702 151q0 -77 -60 -113q-48 -30 -122 -30h-222v495h211q179 0 179 -135q0 -67 -55 -98q69 -33 69 -119zM595 365q0 33 -31 45q-23 7 -60 7h-113v-108h111q44 0 68 15q25 16 25 41zM609 154q0 39 -28 56q-26 13 -83 13h-107v-129h109q109 0 109 60z" />
    <glyph glyph-name="afii10067" unicode="&#x432;" 
d="M702 151q0 -77 -60 -113q-48 -30 -122 -30h-222v495h211q179 0 179 -135q0 -67 -55 -98q69 -33 69 -119zM595 365q0 33 -31 45q-23 7 -60 7h-113v-108h111q44 0 68 15q25 16 25 41zM609 154q0 39 -28 56q-26 13 -83 13h-107v-129h109q109 0 109 60z" />
    <glyph glyph-name="afii10068" unicode="&#xf7c4;" 
d="M684 417h-275v-409h-93v495h368v-86z" />
    <glyph glyph-name="afii10068" unicode="&#x433;" 
d="M684 417h-275v-409h-93v495h368v-86z" />
    <glyph glyph-name="afii10069" unicode="&#xf7c5;" 
d="M763 -140h-93v148h-340v-148h-93v230h51q48 75 84 201q32 114 39 212h303v-413h49v-230zM621 90v327h-130q-24 -157 -104 -327h234z" />
    <glyph glyph-name="afii10069" unicode="&#x434;" 
d="M763 -140h-93v148h-340v-148h-93v230h51q48 75 84 201q32 114 39 212h303v-413h49v-230zM621 90v327h-130q-24 -157 -104 -327h234z" />
    <glyph glyph-name="afii10070" unicode="&#xf7c6;" 
d="M717 237h-340q13 -150 124 -150q81 0 133 93l82 -42q-84 -138 -215 -138q-102 0 -162 75q-56 69 -56 185q0 118 66 187q61 64 155 64q90 0 150 -62q63 -66 63 -170v-42zM619 324q-30 101 -115 101q-89 0 -121 -101h236z" />
    <glyph glyph-name="afii10070" unicode="&#x435;" 
d="M717 237h-340q13 -150 124 -150q81 0 133 93l82 -42q-84 -138 -215 -138q-102 0 -162 75q-56 69 -56 185q0 118 66 187q61 64 155 64q90 0 150 -62q63 -66 63 -170v-42zM619 324q-30 101 -115 101q-89 0 -121 -101h236z" />
    <glyph glyph-name="afii10072" unicode="&#xf7c8;" 
d="M832 8h-97l-57 123q-21 43 -51 59q-27 12 -81 15v-197h-93v197q-55 -3 -80 -15q-30 -17 -50 -59l-58 -123h-97l71 153q31 69 99 96q-40 22 -58 65q-4 11 -11.5 33t-11.5 33q-12 32 -43 32h-25v83h25q64 0 94 -30q25 -27 45 -97q18 -71 100 -83v210h93v-210q83 12 101 79
q18 71 46 99q30 32 94 32h24v-83h-24q-31 0 -43 -32q-14 -33 -24 -66q-20 -45 -58 -65q66 -27 99 -96z" />
    <glyph glyph-name="afii10072" unicode="&#x436;" 
d="M832 8h-97l-57 123q-21 43 -51 59q-27 12 -81 15v-197h-93v197q-55 -3 -80 -15q-30 -17 -50 -59l-58 -123h-97l71 153q31 69 99 96q-40 22 -58 65q-4 11 -11.5 33t-11.5 33q-12 32 -43 32h-25v83h25q64 0 94 -30q25 -27 45 -97q18 -71 100 -83v210h93v-210q83 12 101 79
q18 71 46 99q30 32 94 32h24v-83h-24q-31 0 -43 -32q-14 -33 -24 -66q-20 -45 -58 -65q66 -27 99 -96z" />
    <glyph glyph-name="afii10073" unicode="&#xf7c9;" 
d="M694 157q0 -77 -58 -117q-56 -40 -159 -40q-78 0 -171 54l45 75q79 -43 126 -43q121 0 121 71q0 59 -103 59q-5 0 -15.5 -0.5t-30 -1.5t-36.5 -2v95q50 -5 75 -5q93 0 93 67q0 56 -98 56q-54 0 -120 -33l-39 77q84 42 159 42q70 0 122 -25q72 -36 72 -117q0 -64 -52 -101
q30 -14 50 -44q19 -32 19 -67z" />
    <glyph glyph-name="afii10073" unicode="&#x437;" 
d="M694 157q0 -77 -58 -117q-56 -40 -159 -40q-78 0 -171 54l45 75q79 -43 126 -43q121 0 121 71q0 59 -103 59q-5 0 -15.5 -0.5t-30 -1.5t-36.5 -2v95q50 -5 75 -5q93 0 93 67q0 56 -98 56q-54 0 -120 -33l-39 77q84 42 159 42q70 0 122 -25q72 -36 72 -117q0 -64 -52 -101
q30 -14 50 -44q19 -32 19 -67z" />
    <glyph glyph-name="afii10074" unicode="&#xf7ca;" 
d="M707 8h-93v352l-230 -352h-91v495h93v-349l230 349h91v-495z" />
    <glyph glyph-name="afii10074" unicode="&#x438;" 
d="M707 8h-93v352l-230 -352h-91v495h93v-349l230 349h91v-495z" />
    <glyph glyph-name="afii10075" unicode="&#xf7cb;" 
d="M662 665q-18 -131 -162 -131t-162 131h84q1 -70 78 -70q75 0 78 70h84zM707 8h-93v352l-230 -352h-91v495h93v-349l230 349h91v-495z" />
    <glyph glyph-name="afii10075" unicode="&#x439;" 
d="M662 665q-18 -131 -162 -131t-162 131h84q1 -70 78 -70q75 0 78 70h84zM707 8h-93v352l-230 -352h-91v495h93v-349l230 349h91v-495z" />
    <glyph glyph-name="afii10076" unicode="&#xf7cc;" 
d="M694 8h-97l-130 235l-68 -84v-151h-93v495h93v-208l166 208h109l-148 -188z" />
    <glyph glyph-name="afii10076" unicode="&#x43a;" 
d="M694 8h-97l-130 235l-68 -84v-151h-93v495h93v-208l166 208h109l-148 -188z" />
    <glyph glyph-name="afii10077" unicode="&#xf7cd;" 
d="M732 8h-93v409h-201v-301q0 -106 -170 -108v86q44 0 61 14q16 14 16 51v344h387v-495z" />
    <glyph glyph-name="afii10077" unicode="&#x43b;" 
d="M732 8h-93v409h-201v-301q0 -106 -170 -108v86q44 0 61 14q16 14 16 51v344h387v-495z" />
    <glyph glyph-name="afii10078" unicode="&#xf7ce;" 
d="M743 8h-93v298l-108 -306h-84l-108 309v-301h-93v495h115l128 -373l128 373h115v-495z" />
    <glyph glyph-name="afii10078" unicode="&#x43c;" 
d="M743 8h-93v298l-108 -306h-84l-108 309v-301h-93v495h115l128 -373l128 373h115v-495z" />
    <glyph glyph-name="afii10079" unicode="&#xf7cf;" 
d="M722 8h-93v224h-258v-224h-93v495h93v-185h258v185h93v-495z" />
    <glyph glyph-name="afii10079" unicode="&#x43d;" 
d="M722 8h-93v224h-258v-224h-93v495h93v-185h258v185h93v-495z" />
    <glyph glyph-name="afii10080" unicode="&#xf7d0;" 
d="M744 250q0 -115 -74 -184q-69 -66 -170 -66t-170 66q-74 68 -74 184q0 112 68 186q68 75 176 75q107 0 176 -75q68 -76 68 -186zM648 250q0 79 -39 127t-109 48t-109 -48t-39 -127q0 -77 40 -120q40 -44 108 -44q67 0 108 44q40 45 40 120z" />
    <glyph glyph-name="afii10080" unicode="&#x43e;" 
d="M744 250q0 -115 -74 -184q-69 -66 -170 -66t-170 66q-74 68 -74 184q0 112 68 186q68 75 176 75q107 0 176 -75q68 -76 68 -186zM648 250q0 79 -39 127t-109 48t-109 -48t-39 -127q0 -77 40 -120q40 -44 108 -44q67 0 108 44q40 45 40 120z" />
    <glyph glyph-name="afii10081" unicode="&#xf7d1;" 
d="M720 8h-93v409h-254v-409h-93v495h440v-495z" />
    <glyph glyph-name="afii10081" unicode="&#x43f;" 
d="M720 8h-93v409h-254v-409h-93v495h440v-495z" />
    <glyph glyph-name="afii10082" unicode="&#xf7d2;" 
d="M728 256q0 -123 -68 -193q-63 -63 -156 -63t-139 53v-193h-93v643h93v-51q48 59 136 59q104 0 168 -73q59 -70 59 -182zM632 256q0 169 -135 169q-59 0 -96 -52q-36 -53 -36 -130q0 -69 39 -113q37 -44 95 -44q133 0 133 170z" />
    <glyph glyph-name="afii10082" unicode="&#x440;" 
d="M728 256q0 -123 -68 -193q-63 -63 -156 -63t-139 53v-193h-93v643h93v-51q48 59 136 59q104 0 168 -73q59 -70 59 -182zM632 256q0 169 -135 169q-59 0 -96 -52q-36 -53 -36 -130q0 -69 39 -113q37 -44 95 -44q133 0 133 170z" />
    <glyph glyph-name="afii10083" unicode="&#xf7d3;" 
d="M694 52q-76 -52 -162 -52q-90 0 -152 61q-74 70 -74 197q0 115 71 186q67 67 165 67q58 0 137 -35l-37 -77q-58 26 -100 26q-60 0 -98 -41q-41 -44 -41 -126q0 -92 43 -136q34 -36 86 -36q60 0 113 37z" />
    <glyph glyph-name="afii10083" unicode="&#x441;" 
d="M694 52q-76 -52 -162 -52q-90 0 -152 61q-74 70 -74 197q0 115 71 186q67 67 165 67q58 0 137 -35l-37 -77q-58 26 -100 26q-60 0 -98 -41q-41 -44 -41 -126q0 -92 43 -136q34 -36 86 -36q60 0 113 37z" />
    <glyph glyph-name="afii10084" unicode="&#xf7d4;" 
d="M740 417h-193v-409h-94v409h-193v86h480v-86z" />
    <glyph glyph-name="afii10084" unicode="&#x442;" 
d="M740 417h-193v-409h-94v409h-193v86h480v-86z" />
    <glyph glyph-name="afii10085" unicode="&#xf7d5;" 
d="M725 503l-207 -525q-25 -63 -65 -90q-40 -26 -119 -28v87q48 1 65 10q19 11 38 53l17 40l-179 453h96l129 -337l132 337h93z" />
    <glyph glyph-name="afii10085" unicode="&#x443;" 
d="M725 503l-207 -525q-25 -63 -65 -90q-40 -26 -119 -28v87q48 1 65 10q19 11 38 53l17 40l-179 453h96l129 -337l132 337h93z" />
    <glyph glyph-name="afii10086" unicode="&#xf7d6;" 
d="M833 246q0 -117 -61 -187q-54 -63 -130 -63q-52 0 -97 35v-170h-93v170q-47 -35 -95 -35q-76 0 -130 63q-60 69 -60 187q0 113 54 191q54 77 136 77q52 0 95 -35v185h93v-185q43 35 97 35q82 0 136 -77q55 -79 55 -191zM737 246q0 88 -34 141q-29 41 -61 41
q-59 0 -97 -70v-216q39 -60 94 -60q36 0 63 33q35 43 35 131zM452 142v216q-40 70 -95 70q-33 0 -60 -41q-34 -50 -34 -141q0 -90 34 -131q25 -33 63 -33q53 0 92 60z" />
    <glyph glyph-name="afii10086" unicode="&#x444;" 
d="M833 246q0 -117 -61 -187q-54 -63 -130 -63q-52 0 -97 35v-170h-93v170q-47 -35 -95 -35q-76 0 -130 63q-60 69 -60 187q0 113 54 191q54 77 136 77q52 0 95 -35v185h93v-185q43 35 97 35q82 0 136 -77q55 -79 55 -191zM737 246q0 88 -34 141q-29 41 -61 41
q-59 0 -97 -70v-216q39 -60 94 -60q36 0 63 33q35 43 35 131zM452 142v216q-40 70 -95 70q-33 0 -60 -41q-34 -50 -34 -141q0 -90 34 -131q25 -33 63 -33q53 0 92 60z" />
    <glyph glyph-name="afii10087" unicode="&#xf7d7;" 
d="M777 8h-112l-165 205l-165 -205h-112l221 275l-177 220h112l121 -151l121 151h112l-177 -220z" />
    <glyph glyph-name="afii10087" unicode="&#x445;" 
d="M777 8h-112l-165 205l-165 -205h-112l221 275l-177 220h112l121 -151l121 151h112l-177 -220z" />
    <glyph glyph-name="afii10088" unicode="&#xf7d8;" 
d="M721 -140h-93v148h-349v495h93v-409h225v409h93v-409h31v-234z" />
    <glyph glyph-name="afii10088" unicode="&#x446;" 
d="M721 -140h-93v148h-349v495h93v-409h225v409h93v-409h31v-234z" />
    <glyph glyph-name="afii10089" unicode="&#xf7d9;" 
d="M721 8h-93v239q-110 -79 -184 -79q-82 0 -124 42q-41 41 -41 115v178h94v-174q0 -43 14 -58q13 -17 57 -17q77 0 184 100v149h93v-495z" />
    <glyph glyph-name="afii10089" unicode="&#x447;" 
d="M721 8h-93v239q-110 -79 -184 -79q-82 0 -124 42q-41 41 -41 115v178h94v-174q0 -43 14 -58q13 -17 57 -17q77 0 184 100v149h93v-495z" />
    <glyph glyph-name="afii10090" unicode="&#xf7da;" 
d="M799 8h-598v495h93v-409h159v409h93v-409h160v409h93v-495z" />
    <glyph glyph-name="afii10090" unicode="&#x448;" 
d="M799 8h-598v495h93v-409h159v409h93v-409h160v409h93v-495z" />
    <glyph glyph-name="afii10091" unicode="&#xf7db;" 
d="M815 -140h-93v148h-537v495h93v-409h159v409h93v-409h161v409h93v-409h31v-234z" />
    <glyph glyph-name="afii10091" unicode="&#x449;" 
d="M815 -140h-93v148h-537v495h93v-409h159v409h93v-409h161v409h93v-409h31v-234z" />
    <glyph glyph-name="afii10092" unicode="&#xf7dc;" 
d="M727 159q0 -82 -67 -122q-46 -29 -114 -29h-185v409h-88v86h181v-194h92q181 0 181 -150zM631 159q0 38 -25 54q-20 10 -60 10h-92v-129h92q85 0 85 65z" />
    <glyph glyph-name="afii10092" unicode="&#x44a;" 
d="M727 159q0 -82 -67 -122q-46 -29 -114 -29h-185v409h-88v86h181v-194h92q181 0 181 -150zM631 159q0 38 -25 54q-20 10 -60 10h-92v-129h92q85 0 85 65z" />
    <glyph glyph-name="afii10093" unicode="&#xf7dd;" 
d="M782 8h-93v494h93v-494zM584 159q0 -82 -67 -122q-46 -29 -114 -29h-185v495h93v-194h92q181 0 181 -150zM488 159q0 38 -25 54q-20 10 -60 10h-92v-129h92q85 0 85 65z" />
    <glyph glyph-name="afii10093" unicode="&#x44b;" 
d="M782 8h-93v494h93v-494zM584 159q0 -82 -67 -122q-46 -29 -114 -29h-185v495h93v-194h92q181 0 181 -150zM488 159q0 38 -25 54q-20 10 -60 10h-92v-129h92q85 0 85 65z" />
    <glyph glyph-name="afii10094" unicode="&#xf7de;" 
d="M683 159q0 -82 -67 -122q-46 -29 -114 -29h-185v495h93v-194h92q181 0 181 -150zM587 159q0 38 -25 54q-20 10 -60 10h-92v-129h92q85 0 85 65z" />
    <glyph glyph-name="afii10094" unicode="&#x44c;" 
d="M683 159q0 -82 -67 -122q-46 -29 -114 -29h-185v495h93v-194h92q181 0 181 -150zM587 159q0 38 -25 54q-20 10 -60 10h-92v-129h92q85 0 85 65z" />
    <glyph glyph-name="afii10095" unicode="&#xf7df;" 
d="M695 259q0 -112 -68 -185q-68 -74 -176 -74q-77 0 -144 40l47 73q48 -27 97 -27q121 0 148 132h-187v86h187q-30 121 -150 121q-45 0 -97 -29l-47 73q72 42 144 42q93 0 163 -58q83 -69 83 -194z" />
    <glyph glyph-name="afii10095" unicode="&#x44d;" 
d="M695 259q0 -112 -68 -185q-68 -74 -176 -74q-77 0 -144 40l47 73q48 -27 97 -27q121 0 148 132h-187v86h187q-30 121 -150 121q-45 0 -97 -29l-47 73q72 42 144 42q93 0 163 -58q83 -69 83 -194z" />
    <glyph glyph-name="afii10096" unicode="&#xf7e0;" 
d="M819 253q0 -105 -45 -173q-53 -80 -156 -80q-95 0 -145 65q-45 57 -54 153h-145v-210h-93v495h93v-199h146q12 91 57 145q51 62 141 62q102 0 156 -83q45 -70 45 -175zM723 253q0 175 -105 175q-103 0 -103 -175q0 -167 103 -167q105 0 105 167z" />
    <glyph glyph-name="afii10096" unicode="&#x44e;" 
d="M819 253q0 -105 -45 -173q-53 -80 -156 -80q-95 0 -145 65q-45 57 -54 153h-145v-210h-93v495h93v-199h146q12 91 57 145q51 62 141 62q102 0 156 -83q45 -70 45 -175zM723 253q0 175 -105 175q-103 0 -103 -175q0 -167 103 -167q105 0 105 167z" />
    <glyph glyph-name="afii10097" unicode="&#xf7e1;" 
d="M729 8h-93v201h-84l-165 -201h-116l176 217q-98 40 -98 131q0 147 206 147h174v-495zM636 295v122h-81q-110 0 -110 -59q0 -63 110 -63h81z" />
    <glyph glyph-name="afii10097" unicode="&#x44f;" 
d="M729 8h-93v201h-84l-165 -201h-116l176 217q-98 40 -98 131q0 147 206 147h174v-495zM636 295v122h-81q-110 0 -110 -59q0 -63 110 -63h81z" />
    <glyph glyph-name="afii10071" unicode="&#xf7c7;" 
d="M656 559h-101v102h101v-102zM445 559h-101v102h101v-102zM717 237h-340q13 -150 124 -150q81 0 133 93l82 -42q-84 -138 -215 -138q-102 0 -162 75q-56 69 -56 185q0 118 66 187q61 64 155 64q90 0 150 -62q63 -66 63 -170v-42zM619 324q-30 101 -115 101
q-89 0 -121 -101h236z" />
    <glyph glyph-name="afii10071" unicode="&#x451;" 
d="M656 559h-101v102h101v-102zM445 559h-101v102h101v-102zM717 237h-340q13 -150 124 -150q81 0 133 93l82 -42q-84 -138 -215 -138q-102 0 -162 75q-56 69 -56 185q0 118 66 187q61 64 155 64q90 0 150 -62q63 -66 63 -170v-42zM619 324q-30 101 -115 101
q-89 0 -121 -101h236z" />
    <glyph glyph-name="uni1EBE" unicode="&#xf326;" 
 />
    <glyph glyph-name="uni1EBE" unicode="&#x1ebe;" 
 />
    <glyph glyph-name="uni1EBF" unicode="&#xf345;" 
 />
    <glyph glyph-name="uni1EBF" unicode="&#x1ebf;" 
 />
    <glyph glyph-name="uni1EC0" unicode="&#xf328;" 
 />
    <glyph glyph-name="uni1EC0" unicode="&#x1ec0;" 
 />
    <glyph glyph-name="uni1EC1" unicode="&#xf347;" 
 />
    <glyph glyph-name="uni1EC1" unicode="&#x1ec1;" 
 />
    <glyph glyph-name="CNS1.120.vert" unicode="&#x2013;" orientation="v" 
d="M664 319h-328v82h328v-82z" />
    <glyph glyph-name="CNS1.122.vert" unicode="&#x2014;" orientation="v" 
d="M954 319h-908v82h908v-82z" />
    <glyph glyph-name="quoteleft" unicode="&#x2018;" 
d="M952 547h-128v109q0 91 84 155l35 -44q-50 -39 -59 -92h68v-128z" />
    <glyph glyph-name="quoteright" unicode="&#x2019;" 
d="M176 702q0 -92 -84 -155l-35 44q50 39 59 92h-68v128h128v-109z" />
    <glyph glyph-name="quotedblleft" unicode="&#x201c;" 
d="M952 547h-128v109q0 91 84 155l35 -44q-50 -39 -59 -92h68v-128zM764 547h-128v109q0 91 84 155l35 -44q-50 -39 -59 -92h68v-128z" />
    <glyph glyph-name="quotedblright" unicode="&#x201d;" 
d="M364 702q0 -92 -84 -155l-35 44q50 39 59 92h-68v128h128v-109zM176 702q0 -92 -84 -155l-35 44q50 39 59 92h-68v128h128v-109z" />
    <glyph glyph-name="bullet" unicode="&#x2027;" 
d="M583 279h-166v166h166v-166z" />
    <glyph glyph-name="bullet" unicode="&#x2022;" 
d="M583 279h-166v166h166v-166z" />
    <glyph glyph-name="twodotenleader" unicode="&#x2025;" 
d="M814 298h-128v128h128v-128zM314 298h-128v128h128v-128z" />
    <glyph glyph-name="ellipsis" unicode="&#x22ef;" 
d="M897 298h-128v128h128v-128zM564 298h-128v128h128v-128zM231 298h-128v128h128v-128z" />
    <glyph glyph-name="ellipsis" unicode="&#x2026;" 
d="M897 298h-128v128h128v-128zM564 298h-128v128h128v-128zM231 298h-128v128h128v-128z" />
    <glyph glyph-name="minute" unicode="&#x2032;" 
d="M637 766l-253 -54l-21 54l235 90z" />
    <glyph glyph-name="uni2035" unicode="&#x2035;" 
d="M637 766l-21 -54l-253 54l39 90z" />
    <glyph glyph-name="uni203B" unicode="&#x203b;" 
d="M564 608h-128v128h128v-128zM874 298h-128v128h128v-128zM904 10l-54 -54l-350 350l-350 -350l-54 54l350 350l-350 350l54 54l350 -350l350 350l54 -54l-350 -350zM254 298h-128v128h128v-128zM564 -12h-128v128h128v-128z" />
    <glyph glyph-name="Euro" unicode="&#x20ac;" 
d="M757 326l-21 -62h-374q21 -86 76 -132q49 -43 113 -43q68 0 111 37q40 34 71 108l87 -35q-40 -97 -99 -145q-67 -54 -170 -54q-105 0 -183 72q-79 70 -103 192h-94l21 62h65q-1 11 -1 34q0 28 3 57h-88l21 62h78q28 118 110 192q82 73 187 73q191 0 263 -182l-90 -33
q-51 125 -173 125q-63 0 -117 -45q-56 -47 -82 -130h389l-21 -62h-381q-3 -29 -3 -57q0 -23 1 -34h404z" />
    <glyph glyph-name="uni2103" unicode="&#x2103;" 
d="M891 562l-90 -33q-51 125 -173 125q-85 0 -147 -77q-68 -83 -68 -217q0 -130 63 -205q56 -66 136 -66q68 0 112 37q40 34 71 108l86 -35q-40 -97 -99 -145q-68 -54 -170 -54q-127 0 -209 98q-86 99 -86 262q0 164 89 274q90 110 222 110q191 0 263 -182zM308 716
q0 -49 -35 -84t-84 -35q-50 0 -84 35q-35 34 -35 84q0 49 35 84t84 35q47 0 84 -35q35 -37 35 -84zM253 716q0 24 -19 45q-21 19 -45 19q-26 0 -45 -19t-19 -45q0 -27 19 -45q18 -19 45 -19q26 0 45 19t19 45z" />
    <glyph glyph-name="afii61248" unicode="&#x2105;" 
d="M912 191q0 -87 -46 -139q-48 -52 -121 -52q-79 0 -122 50q-44 50 -44 141q0 87 43 140q46 58 123 58t124 -58q43 -57 43 -140zM827 191q0 116 -82 116q-36 0 -59 -31q-24 -32 -24 -85t23 -80q22 -29 60 -29q82 0 82 109zM877 700l-702 -703l-54 53l703 703zM409 474
q-48 -119 -158 -119q-71 0 -117 54q-46 53 -46 138t48 141q49 55 120 55q104 0 151 -103l-78 -33q-14 28 -26 40q-18 15 -47 15q-35 0 -58 -28q-25 -31 -25 -87q0 -53 24 -82q23 -29 58 -29q57 0 75 70z" />
    <glyph glyph-name="uni2109" unicode="&#x2109;" 
d="M850 650h-363v-228h319v-86h-319v-328h-93v728h456v-86zM308 716q0 -49 -35 -84t-84 -35q-50 0 -84 35q-35 34 -35 84q0 49 35 84t84 35q47 0 84 -35q35 -37 35 -84zM253 716q0 24 -19 45q-21 19 -45 19q-26 0 -45 -19t-19 -45q0 -27 19 -45q18 -19 45 -19q26 0 45 19
t19 45z" />
    <glyph glyph-name="afii61352" unicode="&#xf81c;" 
d="M986 8h-108v108h108v-108zM881 250q0 -115 -59 -185q-55 -65 -143 -65q-89 0 -144 65q-59 68 -59 185q0 113 54 188q55 73 149 73q93 0 148 -73q54 -75 54 -188zM440 8h-77l-266 578v-578h-71v728h78l264 -575v575h72v-728zM810 250q0 84 -33 136q-37 55 -98 55
q-64 0 -97 -53q-35 -53 -35 -138q0 -83 36 -131q36 -49 96 -49q59 0 95 49q36 48 36 131z" />
    <glyph glyph-name="afii61352" unicode="&#x2116;" 
d="M986 8h-108v108h108v-108zM881 250q0 -115 -59 -185q-55 -65 -143 -65q-89 0 -144 65q-59 68 -59 185q0 113 54 188q55 73 149 73q93 0 148 -73q54 -75 54 -188zM440 8h-77l-266 578v-578h-71v728h78l264 -575v575h72v-728zM810 250q0 84 -33 136q-37 55 -98 55
q-64 0 -97 -53q-35 -53 -35 -138q0 -83 36 -131q36 -49 96 -49q59 0 95 49q36 48 36 131z" />
    <glyph glyph-name="uni2121" unicode="&#xf81d;" 
d="M951 8h-71v728h71v-728zM813 249h-320q9 -183 126 -183q80 0 128 93l60 -32q-36 -61 -66 -87q-47 -40 -122 -40q-93 0 -144 72q-52 71 -52 188q0 119 60 188q54 63 139 63q80 0 134 -59q57 -64 57 -172v-31zM497 671h-188v-663h-71v663h-189v65h448v-65zM744 315
q-27 130 -122 130q-94 0 -124 -130h246z" />
    <glyph glyph-name="uni2121" unicode="&#x2121;" 
d="M951 8h-71v728h71v-728zM813 249h-320q9 -183 126 -183q80 0 128 93l60 -32q-36 -61 -66 -87q-47 -40 -122 -40q-93 0 -144 72q-52 71 -52 188q0 119 60 188q54 63 139 63q80 0 134 -59q57 -64 57 -172v-31zM497 671h-188v-663h-71v663h-189v65h448v-65zM744 315
q-27 130 -122 130q-94 0 -124 -130h246z" />
    <glyph glyph-name="trademark" unicode="&#x2122;" horiz-adv-x="840" 
d="M810 316h-69v271l-118 -271h-64l-117 271v-271h-69v408h80l138 -318l139 318h80v-408zM355 661h-144v-345h-68v345h-128v63h340v-63z" />
    <glyph glyph-name="uni2160" unicode="&#x2160;" 
d="M547 8h-94v728h94v-728z" />
    <glyph glyph-name="uni2161" unicode="&#x2161;" 
d="M695 8h-91v728h91v-728zM397 8h-91v728h91v-728z" />
    <glyph glyph-name="uni2162" unicode="&#x2162;" 
d="M789 8h-89v728h89v-728zM545 8h-89v728h89v-728zM301 8h-89v728h89v-728z" />
    <glyph glyph-name="uni2163" unicode="&#x2163;" 
d="M859 736l-236 -728h-94l-236 728h94l189 -570l189 570h94zM230 8h-89v728h89v-728z" />
    <glyph glyph-name="uni2164" unicode="&#x2164;" 
d="M829 736l-283 -728h-93l-282 728h98l231 -608l231 608h98z" />
    <glyph glyph-name="uni2165" unicode="&#x2165;" 
d="M859 8h-89v728h89v-728zM707 736l-236 -728h-94l-236 728h94l189 -570l189 570h94z" />
    <glyph glyph-name="uni2166" unicode="&#x2166;" 
d="M914 8h-89v728h89v-728zM736 8h-89v728h89v-728zM585 736l-202 -728h-94l-202 728h94l155 -558l155 558h94z" />
    <glyph glyph-name="uni2167" unicode="&#x2167;" 
d="M951 8h-89v728h89v-728zM794 8h-89v728h89v-728zM637 8h-89v728h89v-728zM504 736l-180 -728h-94l-180 728h93l134 -540l134 540h93z" />
    <glyph glyph-name="uni2168" unicode="&#x2168;" 
d="M854 8h-106l-183 305l-183 -305h-106l237 393l-201 335h104l149 -248l149 248h105l-201 -335zM235 8h-89v728h89v-728z" />
    <glyph glyph-name="uni2169" unicode="&#x2169;" 
d="M843 8h-113l-229 311l-230 -311h-114l287 388l-251 340h111l197 -265l195 265h112l-251 -340z" />
    <glyph glyph-name="uni2170" unicode="&#xf6c5;" 
d="M546 637h-92v99h92v-99zM546 8h-92v503h92v-503z" />
    <glyph glyph-name="uni2170" unicode="&#x2170;" 
d="M546 637h-92v99h92v-99zM546 8h-92v503h92v-503z" />
    <glyph glyph-name="uni2171" unicode="&#xf6c6;" 
d="M685 637h-93v99h93v-99zM408 637h-93v99h93v-99zM685 8h-93v495h93v-495zM408 8h-93v495h93v-495z" />
    <glyph glyph-name="uni2171" unicode="&#x2171;" 
d="M685 637h-93v99h93v-99zM408 637h-93v99h93v-99zM685 8h-93v495h93v-495zM408 8h-93v495h93v-495z" />
    <glyph glyph-name="uni2172" unicode="&#xf6c7;" 
d="M763 637h-93v99h93v-99zM547 637h-93v99h93v-99zM763 8h-93v495h93v-495zM330 637h-93v99h93v-99zM547 8h-93v495h93v-495zM330 8h-93v495h93v-495z" />
    <glyph glyph-name="uni2172" unicode="&#x2172;" 
d="M763 637h-93v99h93v-99zM547 637h-93v99h93v-99zM763 8h-93v495h93v-495zM330 637h-93v99h93v-99zM547 8h-93v495h93v-495zM330 8h-93v495h93v-495z" />
    <glyph glyph-name="uni2173" unicode="&#xf6c8;" 
d="M265 637h-93v99h93v-99zM828 503l-185 -495h-92l-185 495h96l135 -392l134 392h97zM265 8h-93v495h93v-495z" />
    <glyph glyph-name="uni2173" unicode="&#x2173;" 
d="M265 637h-93v99h93v-99zM828 503l-185 -495h-92l-185 495h96l135 -392l134 392h97zM265 8h-93v495h93v-495z" />
    <glyph glyph-name="uni2174" unicode="&#xf6c9;" 
d="M751 503l-205 -495h-92l-205 495h96l155 -384l155 384h96z" />
    <glyph glyph-name="uni2174" unicode="&#x2174;" 
d="M751 503l-205 -495h-92l-205 495h96l155 -384l155 384h96z" />
    <glyph glyph-name="uni2175" unicode="&#xf6ca;" 
d="M828 637h-93v99h93v-99zM828 8h-93v495h93v-495zM634 503l-185 -495h-92l-185 495h97l134 -392l135 392h96z" />
    <glyph glyph-name="uni2175" unicode="&#x2175;" 
d="M828 637h-93v99h93v-99zM828 8h-93v495h93v-495zM634 503l-185 -495h-92l-185 495h97l134 -392l135 392h96z" />
    <glyph glyph-name="uni2176" unicode="&#xf6cb;" 
d="M897 637h-91v99h91v-99zM714 637h-91v99h91v-99zM897 8h-91v495h91v-495zM714 8h-91v495h91v-495zM553 503l-181 -495h-88l-181 495h95l130 -392l130 392h95z" />
    <glyph glyph-name="uni2176" unicode="&#x2176;" 
d="M897 637h-91v99h91v-99zM714 637h-91v99h91v-99zM897 8h-91v495h91v-495zM714 8h-91v495h91v-495zM553 503l-181 -495h-88l-181 495h95l130 -392l130 392h95z" />
    <glyph glyph-name="uni2177" unicode="&#xf6cc;" 
d="M928 637h-89v99h89v-99zM777 637h-89v99h89v-99zM627 637h-89v99h89v-99zM928 8h-89v495h89v-495zM777 8h-89v495h89v-495zM627 8h-89v495h89v-495zM492 503l-166 -495h-88l-166 495h91l119 -382l118 382h92z" />
    <glyph glyph-name="uni2177" unicode="&#x2177;" 
d="M928 637h-89v99h89v-99zM777 637h-89v99h89v-99zM627 637h-89v99h89v-99zM928 8h-89v495h89v-495zM777 8h-89v495h89v-495zM627 8h-89v495h89v-495zM492 503l-166 -495h-88l-166 495h91l119 -382l118 382h92z" />
    <glyph glyph-name="uni2178" unicode="&#xf6cd;" 
d="M245 637h-93v99h93v-99zM848 8h-107l-160 198l-159 -198h-107l213 265l-185 230h107l131 -164l132 164h107l-185 -230zM245 8h-93v495h93v-495z" />
    <glyph glyph-name="uni2178" unicode="&#x2178;" 
d="M245 637h-93v99h93v-99zM848 8h-107l-160 198l-159 -198h-107l213 265l-185 230h107l131 -164l132 164h107l-185 -230zM245 8h-93v495h93v-495z" />
    <glyph glyph-name="uni2179" unicode="&#xf6ce;" 
d="M767 8h-107l-161 198l-159 -198h-107l213 265l-185 230h107l131 -164l133 164h107l-186 -230z" />
    <glyph glyph-name="uni2179" unicode="&#x2179;" 
d="M767 8h-107l-161 198l-159 -198h-107l213 265l-185 230h107l131 -164l133 164h107l-186 -230z" />
    <glyph glyph-name="arrowleft" unicode="&#x2190;" 
d="M1000 323h-784l132 -118l-45 -45l-260 201l260 202l45 -45l-132 -118h784v-77z" />
    <glyph glyph-name="arrowup" unicode="&#x2191;" 
d="M701 557l-44 -45l-119 132v-784h-76v784l-119 -132l-44 45l201 260z" />
    <glyph glyph-name="arrowright" unicode="&#x2192;" 
d="M957 361l-260 -201l-45 45l132 118h-784v77h784l-132 118l45 45z" />
    <glyph glyph-name="arrowdown" unicode="&#x2193;" 
d="M701 163l-201 -260l-201 260l44 45l119 -132v784h76v-784l119 132z" />
    <glyph glyph-name="uni2196" unicode="&#x2196;" 
d="M943 -31l-54 -54l-737 741l10 -177h-63l-42 326l327 -41v-63l-177 9z" />
    <glyph glyph-name="uni2197" unicode="&#x2197;" 
d="M943 805l-42 -326h-63l10 177l-737 -741l-54 54l736 741l-177 -9v63z" />
    <glyph glyph-name="uni2198" unicode="&#x2198;" 
d="M943 -85l-327 41v63l177 -9l-736 741l54 54l737 -741l-10 177h63z" />
    <glyph glyph-name="uni2199" unicode="&#x2199;" 
d="M943 751l-736 -741l177 9v-63l-327 -41l42 326h63l-10 -177l737 741z" />
    <glyph glyph-name="uni21B8" unicode="&#xf7e3;" 
d="M954 739h-908v82h908v-82zM893 -40l-54 -55l-632 633l9 -177h-63l-42 326l327 -41v-64l-177 10z" />
    <glyph glyph-name="uni21B8" unicode="&#x21b8;" 
d="M954 739h-908v82h908v-82zM893 -40l-54 -55l-632 633l9 -177h-63l-42 326l327 -41v-64l-177 10z" />
    <glyph glyph-name="uni21B9" unicode="&#xf7e4;" 
d="M961 534h-667l132 -118l-45 -45l-260 201l260 202l45 -45l-132 -118h667v-77zM961 -21h-82v349h82v-349zM121 406h-82v349h82v-349zM879 145l-260 -201l-45 45l132 118h-667v77h667l-132 118l45 45z" />
    <glyph glyph-name="uni21B9" unicode="&#x21b9;" 
d="M961 534h-667l132 -118l-45 -45l-260 201l260 202l45 -45l-132 -118h667v-77zM961 -21h-82v349h82v-349zM121 406h-82v349h82v-349zM879 145l-260 -201l-45 45l132 118h-667v77h667l-132 118l45 45z" />
    <glyph glyph-name="uni21E7" unicode="&#xf7e2;" 
d="M849 436h-191v-529h-315v529h-192l349 387zM681 511l-180 200l-181 -200h95v-530h169v530h97z" />
    <glyph glyph-name="uni21E7" unicode="&#x21e7;" 
d="M849 436h-191v-529h-315v529h-192l349 387zM681 511l-180 200l-181 -200h95v-530h169v530h97z" />
    <glyph glyph-name="uni2215" unicode="&#xff0f;" 
d="M736 776l-406 -870l-66 37l408 872z" />
    <glyph glyph-name="uni2215" unicode="&#x2215;" 
d="M736 776l-406 -870l-66 37l408 872z" />
    <glyph glyph-name="radical" unicode="&#x221a;" 
d="M998 782h-497l-241 -819l-132 264l-84 -67l-42 62l160 124l80 -164l200 678h556v-78z" />
    <glyph glyph-name="infinity" unicode="&#x221e;" 
d="M925 361q0 -87 -48 -147q-57 -70 -162 -70q-66 0 -122 46q-42 33 -91 104q-52 -72 -93 -104q-58 -46 -124 -46q-105 0 -162 70q-48 60 -48 147t48 147q58 70 162 70q112 0 217 -144q105 144 213 144q104 0 162 -70q48 -60 48 -147zM844 361q0 61 -30 98q-35 41 -99 41
q-44 0 -87 -40q-32 -28 -78 -96q50 -74 78 -100q42 -42 87 -42q65 0 99 41q30 36 30 98zM454 364q-46 66 -78 96q-46 40 -91 40q-66 0 -99 -41q-30 -37 -30 -98q0 -62 30 -98q32 -41 99 -41q44 0 89 42q32 31 80 100z" />
    <glyph glyph-name="orthogonal" unicode="&#x221f;" 
d="M846 8h-692v728h86v-648h606v-80z" />
    <glyph glyph-name="angle" unicode="&#x2220;" 
d="M892 681l-592 -593h545v-80h-737l727 730z" />
    <glyph glyph-name="uni2223" unicode="&#x2223;" 
d="M542 -140h-84v1000h84v-1000z" />
    <glyph glyph-name="uni2225" unicode="&#x2225;" 
d="M651 -140h-84v1000h84v-1000zM431 -140h-82v1000h82v-1000z" />
    <glyph glyph-name="intersection" unicode="&#x2229;" 
d="M788 8h-83v470q0 96 -49 142t-156 46t-156 -46q-49 -45 -49 -142v-470h-83v470q0 266 288 266t288 -266v-470z" />
    <glyph glyph-name="union" unicode="&#x222a;" 
d="M788 267q0 -266 -288 -266t-288 266v469h83v-469q0 -98 49 -143q48 -45 156 -45t156 45q49 46 49 143v469h83v-469z" />
    <glyph glyph-name="integral" unicode="&#x222b;" 
d="M641 670l-77 -23q-21 79 -64 79q-50 0 -50 -62q0 -50 34 -145q3 -11 55 -144q91 -235 91 -320q0 -59 -34 -102q-38 -45 -96 -45q-103 0 -141 140l77 24q21 -79 64 -79q50 0 50 62q0 55 -33 151q-8 23 -56 147q-91 228 -91 311q0 72 40 112q35 35 90 35q102 0 141 -141z
" />
    <glyph glyph-name="uni222E" unicode="&#x222e;" 
d="M717 361q0 -59 -29 -109q-30 -50 -78 -78q20 -75 20 -119q0 -59 -34 -102q-38 -45 -96 -45q-103 0 -141 140l77 24q21 -79 64 -79q50 0 50 62q0 35 -15 92q-19 -3 -34 -3q-91 0 -154 64q-64 63 -64 153q0 58 30 109q28 46 78 77q-21 72 -21 117q0 72 40 112q35 35 90 35
q102 0 141 -141l-77 -23q-21 79 -64 79q-50 0 -50 -62q0 -36 16 -90q18 3 35 3q90 0 153 -63t63 -153zM632 361q0 54 -39 93t-94 39h-6q18 -48 46 -118q9 -24 23.5 -63t20.5 -54q49 41 49 103zM509 228q-18 49 -48 125q-25 60 -43 112q-52 -40 -52 -104q0 -55 39 -94t94 -39
h10z" />
    <glyph glyph-name="therefore" unicode="&#x2234;" 
d="M564 561h-128v128h128v-128zM828 55h-128v128h128v-128zM300 55h-128v128h128v-128z" />
    <glyph glyph-name="uni2235" unicode="&#x2235;" 
d="M828 561h-128v128h128v-128zM300 561h-128v128h128v-128zM564 55h-128v128h128v-128z" />
    <glyph glyph-name="similar" unicode="&#xff5e;" 
d="M964 406q-46 -80 -83 -111q-65 -56 -165 -56q-72 0 -155 40q-47 24 -139 74q-82 40 -138 40q-67 0 -109 -34q-29 -24 -61 -82l-78 36q43 76 83 111q66 57 165 57q69 0 155 -40q116 -63 137 -74q77 -40 140 -40q67 0 108 34q27 21 62 82z" />
    <glyph glyph-name="similar" unicode="&#x223c;" 
d="M964 406q-46 -80 -83 -111q-65 -56 -165 -56q-72 0 -155 40q-47 24 -139 74q-82 40 -138 40q-67 0 -109 -34q-29 -24 -61 -82l-78 36q43 76 83 111q66 57 165 57q69 0 155 -40q116 -63 137 -74q77 -40 140 -40q67 0 108 34q27 21 62 82z" />
    <glyph glyph-name="uni2252" unicode="&#x2252;" 
d="M845 442h-690v80h690v-80zM370 602h-133v133h133v-133zM763 7h-133v133h133v-133zM845 222h-690v80h690v-80z" />
    <glyph glyph-name="notequal" unicode="&#x2260;" 
d="M845 224h-351l-71 -217l-76 24l63 193h-255v80h280l45 134h-325v80h350l72 220l76 -25l-64 -195h256v-80h-281l-45 -134h326v-80z" />
    <glyph glyph-name="equivalence" unicode="&#x2261;" 
d="M846 538h-692v80h692v-80zM846 332h-692v80h692v-80zM846 124h-692v80h692v-80z" />
    <glyph glyph-name="uni2266" unicode="&#x2266;" 
d="M859 361l-26 -76l-692 226l692 225l26 -75l-460 -150zM846 156h-692v80h692v-80zM846 7h-692v80h692v-80z" />
    <glyph glyph-name="uni2267" unicode="&#x2267;" 
d="M859 511l-692 -226l-26 76l460 150l-460 150l26 75zM846 156h-692v80h692v-80zM846 7h-692v80h692v-80z" />
    <glyph glyph-name="circleplus" unicode="&#x2641;" 
d="M909 360q0 -168 -119 -289q-120 -120 -290 -120q-169 0 -289 120t-120 289q0 170 120 290q121 119 289 119q169 0 290 -119q119 -121 119 -290zM859 388q-10 131 -105 226t-226 105v-331h331zM472 388v331q-133 -11 -226 -105q-95 -95 -105 -226h331zM859 332h-331v-331
q131 10 226 105q94 93 105 226zM472 1v331h-331q11 -133 105 -226q93 -94 226 -105z" />
    <glyph glyph-name="circleplus" unicode="&#x2295;" 
d="M909 360q0 -168 -119 -289q-120 -120 -290 -120q-169 0 -289 120t-120 289q0 170 120 290q121 119 289 119q169 0 290 -119q119 -121 119 -290zM859 388q-10 131 -105 226t-226 105v-331h331zM472 388v331q-133 -11 -226 -105q-95 -95 -105 -226h331zM859 332h-331v-331
q131 10 226 105q94 93 105 226zM472 1v331h-331q11 -133 105 -226q93 -94 226 -105z" />
    <glyph glyph-name="uni2299" unicode="&#x2609;" 
d="M909 360q0 -168 -119 -289q-120 -120 -290 -120q-169 0 -289 120t-120 289q0 170 120 290q121 119 289 119q169 0 290 -119q119 -121 119 -290zM860 360q0 148 -106 254t-254 106t-254 -106q-106 -105 -106 -254t106 -254q105 -106 254 -106t254 106q106 106 106 254z
M581 359q0 -32 -23 -57q-24 -24 -59 -24q-33 0 -57 24q-23 23 -23 58q0 34 24 58q25 23 59 23q31 0 55 -24t24 -58z" />
    <glyph glyph-name="uni2299" unicode="&#x2299;" 
d="M909 360q0 -168 -119 -289q-120 -120 -290 -120q-169 0 -289 120t-120 289q0 170 120 290q121 119 289 119q169 0 290 -119q119 -121 119 -290zM860 360q0 148 -106 254t-254 106t-254 -106q-106 -105 -106 -254t106 -254q105 -106 254 -106t254 106q106 106 106 254z
M581 359q0 -32 -23 -57q-24 -24 -59 -24q-33 0 -57 24q-23 23 -23 58q0 34 24 58q25 23 59 23q31 0 55 -24t24 -58z" />
    <glyph glyph-name="perpendicular" unicode="&#x22a5;" 
d="M846 8h-692v80h303v648h86v-648h303v-80z" />
    <glyph glyph-name="uni22BF" unicode="&#x22bf;" 
d="M862 8h-724l724 741v-741zM776 88v458l-451 -458h451z" />
    <glyph glyph-name="uni23DA" unicode="&#xf34a;" 
 />
    <glyph glyph-name="uni23DA" unicode="&#x23da;" 
 />
    <glyph glyph-name="uni23DB" unicode="&#xf34b;" 
 />
    <glyph glyph-name="uni23DB" unicode="&#x23db;" 
 />
    <glyph glyph-name="uni2400" unicode="&#x2400;" 
d="M965 207l-10 -207h-185v31q39 5 39 48v604q0 22 -7 31q-8 6 -32 6v31h110v-31q-26 0 -32 -8q-7 -8 -7 -31v-602q0 -25 3 -33q6 -15 27 -15q43 0 61 59q7 20 19 117h14zM754 207l-10 -207h-185v31q39 0 39 48v604q0 22 -7 31q-8 6 -32 6v31h109v-31q-26 0 -32 -8
q-7 -8 -7 -31v-602q0 -48 30 -48q44 0 62 59q8 30 19 117h14zM535 720q-23 0 -26 -12q-1 -3 -1 -31v-505q0 -172 -86 -172q-90 0 -90 178v502q0 40 -39 40v31h113v-31q-35 0 -35 -40v-488q0 -137 51 -137q40 0 53 37q9 24 9 88v497q0 22 -2 30q-5 13 -25 13v31h78v-31z
M269 720q-23 0 -26 -12q-1 -3 -1 -32v-676h-20l-136 642v-561q0 -27 4 -35q6 -15 31 -15v-31h-86v31q27 0 27 55v578q0 11 -0.5 23t-0.5 13q-5 20 -22 20v31h66l114 -551v479q0 23 -3 29q-6 12 -33 12v31h86v-31z" />
    <glyph glyph-name="uni2401" unicode="&#x2401;" 
d="M863 410h-109v9h18q28 0 28 18v91h-50v11q38 0 58 12h16v-114q0 -18 39 -18v-9zM705 518q-34 -113 -120 -113q-63 0 -99 64q-32 52 -32 121q0 71 30 125q36 66 101 66q12 0 33 -6q18 -6 27 -6q13 0 28 12l24 -92l-12 -4q-30 80 -100 80q-50 0 -76 -62q-19 -47 -19 -105
q0 -64 24 -108q28 -54 87 -54q49 0 91 83zM968 166q0 -109 -70 -217l-8 -4q-3 1 -4 4q51 110 51 217t-58 228q0 1 4 4l7 -4q78 -111 78 -228zM856 4h-87v12q31 0 31 23v133h-117v-133q0 -17 5 -19q4 -4 22 -4v-12h-82v12q17 0 22 4q5 3 5 19v269q0 14 -5 17q-6 3 -22 3v12
h82v-12q-18 0 -22 -2q-5 -2 -5 -18v-124h117v124q0 20 -31 20v12h87v-12q-29 0 -29 -20v-269q0 -23 29 -23v-12zM429 685h-12q-26 40 -39 53q-27 25 -59 25q-23 0 -23 -28v-279q0 -31 70 -31v-15h-179v15q74 0 74 31v279q0 28 -28 28q-51 0 -93 -78h-12l19 93h266zM603 172
q0 -59 -26 -111q-33 -61 -87 -61q-56 0 -86 61q-23 46 -23 111t23 111q30 61 86 61q53 0 87 -61q26 -52 26 -111zM576 172q0 53 -16 98q-24 58 -70 58q-82 0 -82 -156t82 -156q46 0 70 58q16 45 16 98zM335 94q0 -40 -29 -67q-30 -27 -69 -27q-15 0 -35 8q-26 8 -35 8
q-14 0 -23 -12l-36 102l12 3q16 -35 47 -63q32 -32 68 -32q30 0 49 20q20 22 20 52q0 16 -14 38q-13 18 -29 24l-71 24q-62 21 -62 82q0 41 24 68q24 26 66 26q23 0 39 -8q21 -12 23 -12q8 0 20 12l27 -94h-8q-21 41 -38 61q-27 29 -63 29q-59 0 -59 -70q0 -31 21 -46
q11 -11 48 -22q53 -18 71 -29q36 -24 36 -75zM121 394q-58 -117 -58 -228q0 -108 51 -217l-4 -4l-8 4q-70 106 -70 217q0 117 78 228l7 4q2 0 4 -4z" />
    <glyph glyph-name="uni2402" unicode="&#x2402;" 
d="M847 442l-4 -31h-94q0 31 41 57q41 27 41 49q0 23 -35 23t-35 -23q0 -4 7 -7q8 -3 8 -8q0 -7 -11 -7q-12 0 -12 18q0 39 43 39q51 0 51 -35q0 -18 -16 -32q-6 -6 -33 -21q-34 -22 -37 -41h62q11 0 20 19h4zM705 518q-34 -113 -120 -113q-63 0 -99 64q-32 52 -32 121
q0 71 30 125q36 66 101 66q12 0 33 -6q18 -6 27 -6q13 0 28 12l24 -92l-12 -4q-30 80 -100 80q-50 0 -76 -62q-19 -47 -19 -105q0 -64 24 -108q28 -54 87 -54q49 0 91 83zM968 166q0 -109 -70 -217l-8 -4q-3 1 -4 4q51 110 51 217t-58 228q0 1 4 4l7 -4q78 -111 78 -228z
M878 4h-94v12q31 0 31 12q0 6 -3 15l-51 117l-53 -117q-4 -8 -4 -12q0 -15 33 -15v-12h-86v12q33 0 43 23l62 135l-58 131q-11 23 -39 23v12h86v-12q-27 0 -27 -12q0 -4 4 -11l47 -106l47 100q7 16 7 17q0 12 -31 12v12h78v-12q-27 0 -39 -23l-59 -118l67 -148q9 -23 39 -23
v-12zM429 685h-12q-26 40 -39 53q-27 25 -59 25q-23 0 -23 -28v-279q0 -31 70 -31v-15h-179v15q74 0 74 31v279q0 28 -28 28q-51 0 -93 -78h-12l19 93h266zM607 254h-8q-17 31 -28 48q-20 25 -46 25q-16 0 -16 -23v-261q0 -31 51 -31v-12h-126v12q48 -2 48 31v261
q0 23 -20 23q-38 0 -74 -73h-8l16 85h199zM335 94q0 -40 -29 -67q-30 -27 -69 -27q-15 0 -35 8q-26 8 -35 8q-14 0 -23 -12l-36 102l12 3q16 -35 47 -63q32 -32 68 -32q30 0 49 20q20 22 20 52q0 16 -14 38q-13 18 -29 24l-71 24q-62 21 -62 82q0 41 24 68q24 26 66 26
q23 0 39 -8q21 -12 23 -12q8 0 20 12l27 -94h-8q-21 41 -38 61q-27 29 -63 29q-59 0 -59 -70q0 -31 21 -46q11 -11 48 -22q53 -18 71 -29q36 -24 36 -75zM121 394q-58 -117 -58 -228q0 -108 51 -217l-4 -4l-8 4q-70 106 -70 217q0 117 78 228l7 4q2 0 4 -4z" />
    <glyph glyph-name="uni2403" unicode="&#x2403;" 
d="M843 445q0 -39 -51 -39q-47 0 -47 28q0 11 12 11q10 0 10 -7q0 -2 -9 -11q0 -13 34 -13q35 0 35 31q0 14 -16 24q-13 8 -25 8v3q12 0 24 8q13 10 13 24q0 23 -31 23t-31 -13q15 -6 15 -10q0 -7 -10 -7q-13 0 -13 14q0 28 43 28t43 -34q0 -14 -9 -23q-12 -10 -22 -10
q35 -9 35 -35zM705 518q-34 -113 -120 -113q-63 0 -99 64q-32 52 -32 121q0 71 30 125q36 66 101 66q12 0 33 -6q18 -6 27 -6q13 0 28 12l24 -92l-12 -4q-30 80 -100 80q-50 0 -76 -62q-19 -47 -19 -105q0 -64 24 -108q28 -54 87 -54q49 0 91 83zM968 166q0 -109 -70 -217
l-8 -4q-3 1 -4 4q51 110 51 217t-58 228q0 1 4 4l7 -4q78 -111 78 -228zM878 4h-94v12q31 0 31 12q0 6 -3 15l-51 117l-53 -117q-4 -8 -4 -12q0 -15 33 -15v-12h-86v12q33 0 43 23l62 135l-58 131q-11 23 -39 23v12h86v-12q-27 0 -27 -12q0 -4 4 -11l47 -106l47 100
q7 16 7 17q0 12 -31 12v12h78v-12q-27 0 -39 -23l-59 -118l67 -148q9 -23 39 -23v-12zM429 685h-12q-26 40 -39 53q-27 25 -59 25q-23 0 -23 -28v-279q0 -31 70 -31v-15h-179v15q74 0 74 31v279q0 28 -28 28q-51 0 -93 -78h-12l19 93h266zM607 254h-8q-17 31 -28 48
q-20 25 -46 25q-16 0 -16 -23v-261q0 -31 51 -31v-12h-126v12q48 -2 48 31v261q0 23 -20 23q-38 0 -74 -73h-8l16 85h199zM350 90l-11 -90h-221v12q37 -2 37 27v261q0 27 -37 27v12h221l8 -93h-8q-24 49 -40 64q-23 17 -73 17q-40 0 -40 -27v-116h55q27 0 27 82h12v-184h-12
l1 15q0 75 -28 75h-55v-133q0 -28 44 -28q52 0 72 16q17 11 41 63h7zM121 394q-58 -117 -58 -228q0 -108 51 -217l-4 -4l-8 4q-70 106 -70 217q0 117 78 228l7 4q2 0 4 -4z" />
    <glyph glyph-name="uni2404" unicode="&#x2404;" 
d="M844 442h-24v-19q0 -11 11 -11h5v-6h-53v6h9q15 0 15 11v19h-63v8l67 97h9v-96h24v-9zM807 451v73l-52 -73h52zM705 518q-34 -113 -120 -113q-63 0 -99 64q-32 52 -32 121q0 71 30 125q36 66 101 66q12 0 33 -6q18 -6 27 -6q13 0 28 12l24 -92l-12 -4q-30 80 -100 80
q-50 0 -76 -62q-19 -47 -19 -105q0 -64 24 -108q28 -54 87 -54q49 0 91 83zM968 166q0 -109 -70 -217l-8 -4q-3 1 -4 4q51 110 51 217t-58 228q0 1 4 4l7 -4q78 -111 78 -228zM871 254h-8q-22 41 -28 48q-20 25 -46 25q-16 0 -16 -23v-261q0 -31 51 -31v-12h-126v12
q48 -2 48 31v261q0 23 -20 23q-38 0 -74 -73h-8l16 85h199zM429 685h-12q-26 40 -39 53q-27 25 -59 25q-23 0 -23 -28v-279q0 -31 70 -31v-15h-179v15q74 0 74 31v279q0 28 -28 28q-51 0 -93 -78h-12l19 93h266zM603 172q0 -59 -26 -111q-33 -61 -87 -61q-56 0 -86 61
q-23 46 -23 111t23 111q30 61 86 61q53 0 87 -61q26 -52 26 -111zM576 172q0 53 -16 98q-24 58 -70 58q-82 0 -82 -156t82 -156q46 0 70 58q16 45 16 98zM350 90l-11 -90h-221v12q37 -2 37 27v261q0 27 -37 27v12h221l8 -93h-8q-24 49 -40 64q-23 17 -73 17q-40 0 -40 -27
v-116h55q27 0 27 82h12v-184h-12l1 15q0 75 -28 75h-55v-133q0 -28 44 -28q52 0 72 16q17 11 41 63h7zM121 394q-58 -117 -58 -228q0 -108 51 -217l-4 -4l-8 4q-70 106 -70 217q0 117 78 228l7 4q2 0 4 -4z" />
    <glyph glyph-name="uni2405" unicode="&#x2405;" 
d="M861 457q0 -47 -55 -47q-43 0 -43 27q0 12 10 12q9 0 9 -8q0 -3 -4 -5q-3 -3 -3 -6q0 -12 31 -12q37 0 37 39q0 33 -32 33q-24 0 -36 -17h-11l4 77h89l-4 -14h-77l-3 -51q18 15 41 15q17 0 32 -12q15 -14 15 -31zM705 518q-34 -113 -120 -113q-63 0 -99 64
q-32 52 -32 121q0 71 30 125q36 66 101 66q12 0 33 -6q18 -6 27 -6q13 0 28 12l24 -92l-12 -4q-30 80 -100 80q-50 0 -76 -62q-19 -47 -19 -105q0 -64 24 -108q28 -54 87 -54q49 0 91 83zM968 166q0 -109 -70 -217l-8 -4q-3 1 -4 4q51 110 51 217t-58 228q0 1 4 4l7 -4
q78 -111 78 -228zM870 172q0 -43 -15 -85q-18 -48 -49 -72q12 -35 33 -35q9 0 23 12l4 -4q-19 -31 -39 -31q-24 0 -39 49q-15 -6 -31 -6q-56 0 -86 61q-24 48 -24 111t24 111q31 61 86 61q53 0 87 -61q26 -52 26 -111zM843 172q0 55 -17 98q-23 58 -69 58q-82 0 -82 -156
q0 -89 27 -128q0 61 39 61q32 0 59 -73q43 40 43 140zM783 21q-23 73 -42 73q-29 0 -29 -45q0 -14 1 -18q18 -15 44 -15q16 0 26 5zM429 685h-12q-26 40 -39 53q-27 25 -59 25q-23 0 -23 -28v-279q0 -31 70 -31v-15h-179v15q74 0 74 31v279q0 28 -28 28q-51 0 -93 -78h-12
l19 93h266zM604 330q-14 0 -17 -6t-3 -21v-303h-15l-145 287v-252q0 -23 28 -23v-12h-71v12q24 0 24 23v268q0 27 -24 27v12h51l133 -260v222q0 26 -31 26v12h70v-12zM350 90l-11 -90h-235v12q51 -2 51 27v261q0 27 -51 27v12h235l8 -93h-8q-24 49 -40 64q-23 17 -73 17
q-40 0 -40 -27v-116h55q27 0 27 82h12v-184h-12l1 15q0 75 -28 75h-55v-133q0 -28 44 -28q52 0 72 16q17 11 41 63h7zM121 394q-58 -117 -58 -228q0 -108 51 -217l-4 -4l-8 4q-70 106 -70 217q0 117 78 228l7 4q2 0 4 -4z" />
    <glyph glyph-name="uni2406" unicode="&#x2406;" 
d="M865 457q0 -47 -52 -47q-58 0 -58 70q0 75 55 75q47 0 47 -30q0 -10 -13 -10q-10 0 -10 9q2 4 7 11q0 12 -31 12q-35 0 -35 -60v-3q26 13 44 13q16 0 32 -11q14 -11 14 -29zM845 453q0 13 -9 25q-10 10 -21 10q-23 0 -40 -17q0 -53 39 -53q31 0 31 35zM705 518
q-34 -113 -120 -113q-63 0 -99 64q-32 52 -32 121q0 71 30 125q36 66 101 66q12 0 33 -6q18 -6 27 -6q13 0 28 12l24 -92l-12 -4q-30 80 -100 80q-50 0 -76 -62q-19 -47 -19 -105q0 -64 24 -108q28 -54 87 -54q49 0 91 83zM968 166q0 -109 -70 -217l-8 -4q-3 1 -4 4
q51 110 51 217t-58 228q0 1 4 4l7 -4q78 -111 78 -228zM862 0h-78v12q16 0 16 12q-1 2 -4 11l-64 148l-30 -46v-97q0 -20 4 -24q3 -4 20 -4v-12h-79v12q28 0 28 27v270q0 14 -5 19q-8 4 -23 4v12h79v-12q-14 0 -20 -4q-4 -5 -4 -19v-141l91 138q8 13 8 19q0 7 -19 7v12h69
v-12q-23 0 -39 -27l-59 -94l78 -172q9 -22 31 -27v-12zM429 685h-12q-26 40 -39 53q-27 25 -59 25q-23 0 -23 -28v-279q0 -31 70 -31v-15h-179v15q74 0 74 31v279q0 28 -28 28q-51 0 -93 -78h-12l19 93h266zM604 102q-26 -102 -105 -102q-59 0 -88 53q-25 43 -25 111
q0 65 22 112q28 63 87 63q9 0 31 -5q20 -6 28 -6t19 11l24 -85l-8 -4q-18 38 -34 54q-23 20 -60 20q-42 0 -63 -61q-15 -44 -15 -95q0 -143 93 -143q49 0 85 77h9zM357 0h-89v12q30 0 30 16v1q-1 1 -1.5 3.5t-1.5 6.5t-2.5 9.5t-2.5 12.5l-17 72h-85l-23 -84q-6 -24 -6 -25
q0 -12 26 -12v-12h-71v12q18 0 23 8q1 1 8 23l84 301l16 8l79 -309q7 -31 33 -31v-12zM269 144l-38 147l-40 -147h78zM121 394q-58 -117 -58 -228q0 -108 51 -217l-4 -4l-8 4q-70 106 -70 217q0 117 78 228l7 4q2 0 4 -4z" />
    <glyph glyph-name="uni2407" unicode="&#x2407;" 
d="M956 203l-12 -203h-218v31q22 0 31 9q8 8 8 30v620q0 19 -10 26q-8 4 -29 4v31h109v-31q-25 0 -32 -7t-7 -27v-616q0 -25 13 -32q8 -7 38 -7q57 0 78 61q3 9 18 111h13zM698 207l-11 -207h-219v31q39 0 39 48v604q0 22 -7 31q-8 6 -32 6v31h109v-31q-26 0 -32 -8
q-7 -8 -7 -31v-602q0 -26 7 -34q10 -14 44 -14q53 0 75 59q7 20 22 117h12zM447 199l-11 -199h-179v31q23 0 23 56v584q0 49 -23 49v31h179l7 -199h-10q-16 80 -23 102q-24 66 -67 66q-32 0 -32 -46l1 -272h32q26 0 26 117h16v-273h-16q0 125 -26 125h-32v-296q0 -44 38 -44
q45 0 66 65q4 13 21 103h10zM241 211q0 -211 -113 -211h-86v31q31 0 31 38v611q0 18 -4 28q-7 12 -27 12v31h90q101 0 101 -181q0 -121 -63 -172q71 -39 71 -187zM202 570q0 150 -70 150q-9 0 -18 -6q-10 -6 -10 -14v-290h26q32 0 53 48q19 48 19 112zM210 215q0 69 -18 115
q-21 53 -59 53h-29v-303q0 -45 29 -45q77 0 77 180z" />
    <glyph glyph-name="uni2408" unicode="&#x2408;" 
d="M858 481q0 -33 -7 -49q-12 -22 -43 -22q-32 0 -44 22q-7 13 -7 49q0 35 7 49q11 23 44 23q31 0 43 -23q7 -18 7 -49zM839 481q0 63 -31 63q-32 0 -32 -63q0 -62 32 -62q31 0 31 62zM714 505l-15 -96h-232v14q31 0 31 32v284q0 25 -31 25v14h232l11 -95h-11q-27 54 -47 68
q-22 14 -80 14q-33 0 -33 -26v-132h56q28 0 28 57h12v-132h-12q0 60 -28 60h-56v-137q0 -32 60 -32q74 0 104 82h11zM968 166q0 -109 -70 -217l-8 -4q-3 1 -4 4q51 110 51 217t-58 228q0 1 4 4l7 -4q78 -111 78 -228zM894 94q0 -52 -59 -76q-43 -18 -102 -18q-26 0 -61 8
q-42 8 -48 8q-18 0 -39 -12l-51 98l16 3q31 -37 79 -61q50 -28 97 -28q48 0 83 18q34 19 34 52q0 34 -53 54q-27 6 -81 20q-76 19 -101 31q-46 22 -46 59q0 50 47 75q38 19 93 19q15 0 50 -8q29 -8 52 -8q16 0 31 8l43 -90h-16q-35 42 -67 63q-40 23 -89 23q-36 0 -63 -16
q-31 -19 -31 -54q0 -28 34 -43q20 -10 75 -23q92 -22 116 -31q57 -24 57 -71zM433 679h-12q-31 52 -59 69q-29 16 -88 16h-31q-29 0 -29 -25v-132h79q31 0 31 57h13v-132h-13q0 60 -31 60h-79v-137q0 -20 12 -26q10 -6 44 -6v-14h-140v14q44 0 44 32v284q0 25 -44 25v14h295
zM491 98q0 -94 -175 -94h-184v14l13 -1q38 0 38 28v259q0 23 -51 23v13h215q46 0 79 -18q42 -23 42 -64q0 -66 -94 -78q43 -4 76 -20q41 -24 41 -62zM417 258q0 69 -101 69h-59q-31 0 -31 -23v-120h84q39 0 70 20q37 23 37 54zM440 98q0 74 -130 74h-84v-127q0 -27 60 -27
q154 0 154 80zM121 394q-58 -117 -58 -228q0 -108 51 -217l-4 -4l-8 4q-70 106 -70 217q0 117 78 228l7 4q2 0 4 -4z" />
    <glyph glyph-name="uni2409" unicode="&#x2409;" 
d="M866 410h-109v9h18q29 0 29 18v91h-51v11q39 0 59 12h15v-114q0 -18 39 -18v-9zM714 505l-15 -96h-232v14q31 0 31 32v284q0 25 -31 25v14h232l11 -95h-11q-27 54 -47 68q-22 14 -80 14q-33 0 -33 -26v-132h56q28 0 28 57h12v-132h-12q0 60 -28 60h-56v-137q0 -32 60 -32
q74 0 104 82h11zM968 166q0 -109 -70 -217l-8 -4q-3 1 -4 4q51 110 51 217t-58 228q0 1 4 4l7 -4q78 -111 78 -228zM433 679h-12q-31 52 -59 69q-29 16 -88 16h-31q-29 0 -29 -25v-132h79q31 0 31 57h13v-132h-13q0 60 -31 60h-79v-137q0 -20 12 -26q10 -6 44 -6v-14h-140
v14q44 0 44 32v284q0 25 -44 25v14h295zM874 254h-12q-35 40 -52 53q-30 21 -69 21q-27 0 -27 -23v-266q0 -27 57 -27v-12h-151v12q51 0 51 27v266q0 23 -31 23q-63 0 -114 -74h-11l19 86h317zM483 4h-129v12q47 0 47 27v127h-179v-127q0 -27 43 -27v-12h-129v12q43 0 43 27
v262q0 23 -43 23v12h129v-12q-43 0 -43 -23v-121h179v121q0 23 -47 23v12h129v-12q-39 0 -39 -23v-262q0 -27 39 -27v-12zM121 394q-58 -117 -58 -228q0 -108 51 -217l-4 -4l-8 4q-70 106 -70 217q0 117 78 228l7 4q2 0 4 -4z" />
    <glyph glyph-name="uni240A" unicode="&#x240a;" 
d="M847 442l-4 -31h-94q0 31 41 57q41 27 41 49q0 23 -35 23t-35 -23q0 -4 7 -7q8 -3 8 -8q0 -7 -11 -7q-12 0 -12 18q0 39 43 39q51 0 51 -35q0 -18 -16 -32q-6 -6 -33 -21q-34 -22 -37 -41h62q11 0 20 19h4zM714 505l-15 -96h-232v14q31 0 31 32v284q0 25 -31 25v14h232
l11 -95h-11q-27 54 -47 68q-22 14 -80 14q-33 0 -33 -26v-132h56q28 0 28 57h12v-132h-12q0 60 -28 60h-56v-137q0 -32 60 -32q74 0 104 82h11zM968 166q0 -109 -70 -217l-8 -4q-3 1 -4 4q51 110 51 217t-58 228q0 1 4 4l7 -4q78 -111 78 -228zM433 679h-12q-31 52 -59 69
q-29 16 -88 16h-31q-29 0 -29 -25v-132h79q31 0 31 57h13v-132h-13q0 60 -31 60h-79v-137q0 -20 12 -26q10 -6 44 -6v-14h-140v14q44 0 44 32v284q0 25 -44 25v14h295zM841 241h-12q-27 60 -57 75q-24 11 -91 11h-37q-29 0 -29 -26v-120h85q32 0 32 57h13v-132h-13
q0 60 -32 60h-85v-120q0 -21 13 -27q8 -5 43 -5v-14h-139v14q43 0 43 32v255q0 26 -43 26v14h288zM483 94l-15 -90h-320v14q46 0 46 35v251q0 23 -46 23v13h144v-13q-51 0 -51 -23v-251q0 -35 71 -35q67 0 100 16q34 15 60 60h11zM121 394q-58 -117 -58 -228q0 -108 51 -217
l-4 -4l-8 4q-70 106 -70 217q0 117 78 228l7 4q2 0 4 -4z" />
    <glyph glyph-name="uni240B" unicode="&#x240b;" 
d="M843 445q0 -39 -51 -39q-47 0 -47 28q0 11 12 11q10 0 10 -7q0 -2 -9 -11q0 -13 34 -13q35 0 35 31q0 14 -16 24q-13 8 -25 8v3q12 0 24 8q13 10 13 24q0 23 -31 23t-31 -13q15 -6 15 -10q0 -7 -10 -7q-13 0 -13 14q0 28 43 28t43 -34q0 -14 -9 -23q-12 -10 -22 -10
q35 -9 35 -35zM714 505l-15 -96h-232v14q31 0 31 32v284q0 25 -31 25v14h232l11 -95h-11q-27 54 -47 68q-22 14 -80 14q-33 0 -33 -26v-132h56q28 0 28 57h12v-132h-12q0 60 -28 60h-56v-137q0 -32 60 -32q74 0 104 82h11zM968 166q0 -109 -70 -217l-8 -4q-3 1 -4 4
q51 110 51 217t-58 228q0 1 4 4l7 -4q78 -111 78 -228zM433 679h-12q-31 52 -59 69q-29 16 -88 16h-31q-29 0 -29 -25v-132h79q31 0 31 57h13v-132h-13q0 60 -31 60h-79v-137q0 -20 12 -26q10 -6 44 -6v-14h-140v14q44 0 44 32v284q0 25 -44 25v14h295zM874 254h-12
q-35 40 -52 53q-30 21 -69 21q-27 0 -27 -23v-266q0 -27 57 -27v-12h-151v12q51 0 51 27v266q0 23 -31 23q-63 0 -114 -74h-11l19 86h317zM491 328q-50 0 -62 -31l-117 -293h-16l-121 297q-12 27 -47 27v12h140v-12q-47 0 -47 -16q0 -7 4 -15l88 -237l97 237q4 12 4 15
q0 16 -44 16v12h121v-12zM121 394q-58 -117 -58 -228q0 -108 51 -217l-4 -4l-8 4q-70 106 -70 217q0 117 78 228l7 4q2 0 4 -4z" />
    <glyph glyph-name="uni240C" unicode="&#x240c;" 
d="M852 410h-68v6h12q16 0 16 12v15h-67v10l67 98h15v-102h25v-6h-25v-15q0 -12 13 -12h12v-6zM812 449v86l-59 -86h59zM714 505l-15 -96h-232v14q31 0 31 32v284q0 25 -31 25v14h232l11 -95h-11q-27 54 -47 68q-22 14 -80 14q-33 0 -33 -26v-132h56q28 0 28 57h12v-132h-12
q0 60 -28 60h-56v-137q0 -32 60 -32q74 0 104 82h11zM968 166q0 -109 -70 -217l-8 -4q-3 1 -4 4q51 110 51 217t-58 228q0 1 4 4l7 -4q78 -111 78 -228zM433 679h-12q-31 52 -59 69q-29 16 -88 16h-31q-29 0 -29 -25v-132h79q31 0 31 57h13v-132h-13q0 60 -31 60h-79v-137
q0 -20 12 -26q10 -6 44 -6v-14h-140v14q44 0 44 32v284q0 25 -44 25v14h295zM841 241h-12q-27 60 -57 75q-24 11 -91 11h-37q-29 0 -29 -26v-120h85q32 0 32 57h13v-132h-13q0 60 -32 60h-85v-120q0 -21 13 -27q8 -5 43 -5v-14h-139v14q43 0 43 32v255q0 26 -43 26v14h288z
M457 241h-12q-25 60 -56 75q-25 11 -91 11h-37q-29 0 -29 -26v-120h85q31 0 31 57h13v-132h-13q0 60 -31 60h-85v-120q0 -20 12 -26q10 -6 44 -6v-14h-140v14q44 0 44 32v255q0 26 -44 26v14h288zM121 394q-58 -117 -58 -228q0 -108 51 -217l-4 -4l-8 4q-70 106 -70 217
q0 117 78 228l7 4q2 0 4 -4z" />
    <glyph glyph-name="uni240D" unicode="&#x240d;" 
d="M861 457q0 -47 -55 -47q-43 0 -43 27q0 12 10 12q9 0 9 -8q0 -3 -4 -5q-3 -3 -3 -6q0 -12 31 -12q37 0 37 39q0 33 -32 33q-24 0 -36 -17h-11l4 77h89l-4 -14h-77l-3 -51q18 15 41 15q17 0 32 -12q15 -14 15 -31zM714 505l-15 -96h-232v14q31 0 31 32v284q0 25 -31 25v14
h232l11 -95h-11q-27 54 -47 68q-22 14 -80 14q-33 0 -33 -26v-132h56q28 0 28 57h12v-132h-12q0 60 -28 60h-56v-137q0 -32 60 -32q74 0 104 82h11zM968 166q0 -109 -70 -217l-8 -4q-3 1 -4 4q51 110 51 217t-58 228q0 1 4 4l7 -4q78 -111 78 -228zM433 679h-12
q-31 52 -59 69q-29 16 -88 16h-31q-29 0 -29 -25v-132h79q31 0 31 57h13v-132h-13q0 60 -31 60h-79v-137q0 -20 12 -26q10 -6 44 -6v-14h-140v14q44 0 44 32v284q0 25 -44 25v14h295zM873 1h-86l-126 164h-62v-125q0 -27 51 -27v-12h-141v12q51 0 51 27v262q0 23 -51 23v12
h192q44 0 80 -22q41 -26 41 -68q0 -82 -118 -82l102 -129q17 -23 67 -23v-12zM779 251q0 47 -49 65q-30 9 -89 9q-42 0 -42 -23v-125h87q93 0 93 74zM453 99q-49 -99 -161 -99q-84 0 -134 46t-50 122q0 80 52 128q52 46 132 46q14 0 42 -6q27 -6 40 -6q16 0 35 12l31 -82
l-9 -4q-60 66 -139 66q-63 0 -102 -42q-39 -44 -39 -108q0 -63 45 -102q43 -40 116 -40q83 0 135 74zM121 394q-58 -117 -58 -228q0 -108 51 -217l-4 -4l-8 4q-70 106 -70 217q0 117 78 228l7 4q2 0 4 -4z" />
    <glyph glyph-name="uni240E" unicode="&#x240e;" 
d="M944 381q0 -381 -195 -381t-195 381q0 370 196 370q194 0 194 -370zM894 379q0 342 -145 342q-144 0 -144 -342q0 -147 31 -237q36 -113 114 -113q76 0 113 113q31 95 31 237zM492 199q0 -83 -53 -139q-57 -60 -152 -60q-30 0 -74 17q-49 17 -57 17q-21 0 -39 -15
l-62 199l14 8q91 -201 218 -201q72 0 117 46q43 46 43 117q0 91 -95 133l-145 63q-53 22 -85 72q-32 48 -32 113q0 73 40 123q47 59 132 59q33 0 80 -22q43 -22 45 -22q19 0 35 11l51 -177h-17q-43 84 -73 120q-56 65 -118 65q-58 0 -91 -38q-33 -39 -33 -96q0 -106 87 -144
l143 -64q121 -54 121 -185z" />
    <glyph glyph-name="uni240F" unicode="&#x240f;" 
d="M890 0h-250v23q48 0 68 12q29 15 29 59v574q0 40 -31 54q-20 7 -66 8v20h250v-20q-48 0 -66 -9q-32 -15 -32 -53v-574q0 -44 29 -59q19 -12 69 -12v-23zM546 199q0 -83 -53 -139q-57 -60 -152 -60q-30 0 -74 17q-49 17 -57 17q-21 0 -39 -15l-63 199l15 8
q91 -201 218 -201q71 0 116 46q44 46 44 117q0 91 -96 133l-144 63q-53 22 -85 72q-32 48 -32 113q0 73 40 123q47 59 131 59q34 0 81 -22l44 -22q20 0 36 11l50 -177h-16q-41 81 -74 120q-54 65 -118 65q-57 0 -90 -38q-34 -38 -34 -96q0 -106 87 -144l144 -64
q121 -54 121 -185z" />
    <glyph glyph-name="uni2410" unicode="&#x2410;" 
d="M863 536q-55 -71 -55 -110q0 -24 -15 -24q-14 0 -14 20q0 16 29 57q25 37 43 56h-71q-13 0 -25 -27l-8 2l12 36q0 4 4 4h100v-14zM705 518q-34 -113 -120 -113q-63 0 -99 64q-32 52 -32 121q0 71 30 125q36 66 101 66q12 0 33 -6q18 -6 27 -6q13 0 28 12l24 -92l-12 -4
q-30 80 -100 80q-50 0 -76 -62q-19 -47 -19 -105q0 -64 24 -108q28 -54 87 -54q49 0 91 83zM968 166q0 -109 -70 -217l-8 -4q-3 1 -4 4q51 110 51 217t-58 228q0 1 4 4l7 -4q78 -111 78 -228zM876 90l-11 -90h-234v12q51 -2 51 27v261q0 27 -51 27v12h234l8 -93h-8
q-22 49 -40 64q-22 17 -73 17q-39 0 -39 -27v-116h55q27 0 27 82h12v-184h-12v15q0 75 -27 75h-55v-133q0 -28 44 -28q52 0 72 16q16 11 40 63h7zM429 685h-12q-26 40 -39 53q-27 25 -59 25q-23 0 -23 -28v-279q0 -31 70 -31v-15h-179v15q74 0 74 31v279q0 28 -28 28
q-51 0 -93 -78h-12l19 93h266zM616 90l-12 -90h-218v12q39 -2 39 27v264q0 23 -39 23v12h101v-12q-35 0 -35 -23v-264q0 -19 17 -25q5 -2 34 -2q51 0 71 14q19 15 34 64h8zM347 174q0 -61 -28 -112q-35 -62 -97 -62h-98v12q27 -2 27 27v265q0 19 -27 19v16h108q58 0 90 -57
q25 -47 25 -108zM312 174q0 52 -20 95q-27 54 -74 54h-13q-26 0 -26 -19v-265q0 -24 26 -24h13q50 0 75 59q19 44 19 100zM121 394q-58 -117 -58 -228q0 -108 51 -217l-4 -4l-8 4q-70 106 -70 217q0 117 78 228l7 4q2 0 4 -4z" />
    <glyph glyph-name="uni2411" unicode="&#x2411;" 
d="M957 1h-150v16h32q27 0 27 15v160q0 8 -12 8h-47v16q59 0 79 19h11v-203q0 -15 28 -15h32v-16zM741 220q-43 -221 -148 -221q-164 0 -164 365q0 135 27 235q42 148 133 148q24 0 52 -13q22 -14 26 -14q14 0 31 23l32 -176l-16 -8q-20 69 -40 106q-33 54 -85 54
q-67 0 -97 -143q-20 -89 -20 -200t21 -192q33 -128 113 -128q66 0 118 168zM382 380q0 -151 -39 -247q-53 -132 -171 -132h-118v26q39 0 39 44v610q0 23 -7 34q-7 9 -32 9v27h139q189 0 189 -371zM339 380q0 138 -34 234q-41 110 -116 110q-46 0 -55 -14q-6 -9 -6 -29v-610
q0 -44 58 -44q71 0 114 113q39 100 39 240z" />
    <glyph glyph-name="uni2412" unicode="&#x2412;" 
d="M938 61l-4 -60h-155q0 43 35 74q30 20 65 47q33 24 33 54q0 19 -16 35q-19 14 -38 14q-61 0 -61 -41q0 -4 11 -10q12 -6 12 -14q0 -15 -16 -15q-21 0 -21 31q0 29 24 47q22 16 51 16q30 0 56 -16q24 -16 24 -47q0 -32 -27 -53q-9 -9 -52 -32q-53 -30 -62 -69h100
q15 0 22 13q1 2 9 26h10zM741 220q-43 -221 -148 -221q-164 0 -164 365q0 135 27 235q42 148 133 148q24 0 52 -13q22 -14 26 -14q14 0 31 23l32 -176l-16 -8q-20 69 -40 106q-33 54 -85 54q-67 0 -97 -143q-20 -89 -20 -200t21 -192q33 -128 113 -128q66 0 118 168z
M382 380q0 -151 -39 -247q-53 -132 -171 -132h-118v26q39 0 39 44v610q0 23 -7 34q-7 9 -32 9v27h139q189 0 189 -371zM339 380q0 138 -34 234q-41 110 -116 110q-46 0 -55 -14q-6 -9 -6 -29v-610q0 -44 58 -44q71 0 114 113q39 100 39 240z" />
    <glyph glyph-name="uni2413" unicode="&#x2413;" 
d="M938 71q0 -35 -24 -53q-26 -18 -63 -18q-27 0 -47 12q-25 15 -25 39q0 27 21 27q16 0 16 -15q0 -6 -8 -12l-7 -7q0 -15 18 -24q15 -6 32 -6q57 0 57 57q0 49 -62 49v10q58 0 58 49q0 20 -16 33t-37 13q-15 0 -31 -8q-15 -9 -15 -21q0 -4 9 -7q10 -5 10 -10q0 -14 -13 -14
q-24 0 -24 23t24 38q21 12 47 12q30 0 51 -15t21 -44q0 -40 -43 -52q19 -3 35 -19q16 -18 16 -37zM741 220q-43 -221 -148 -221q-164 0 -164 365q0 135 27 235q42 148 133 148q24 0 52 -13q22 -14 26 -14q14 0 31 23l32 -176l-16 -8q-20 69 -40 106q-33 54 -85 54
q-67 0 -97 -143q-20 -89 -20 -200t21 -192q33 -128 113 -128q66 0 118 168zM382 380q0 -151 -39 -247q-53 -132 -171 -132h-118v26q39 0 39 44v610q0 23 -7 34q-7 9 -32 9v27h139q189 0 189 -371zM339 380q0 138 -34 234q-41 110 -116 110q-46 0 -55 -14q-6 -9 -6 -29v-610
q0 -44 58 -44q71 0 114 113q39 100 39 240z" />
    <glyph glyph-name="uni2414" unicode="&#x2414;" 
d="M930 59h-35v-30q0 -18 27 -18v-10h-88v10h23q12 3 12 18v30h-94v13l102 163h18v-166h35v-10zM869 69v127l-79 -127h79zM741 220q-43 -221 -148 -221q-164 0 -164 365q0 135 27 235q42 148 133 148q24 0 52 -13q22 -14 26 -14q14 0 31 23l32 -176l-16 -8q-20 69 -40 106
q-33 54 -85 54q-67 0 -97 -143q-20 -89 -20 -200t21 -192q33 -128 113 -128q66 0 118 168zM382 380q0 -151 -39 -247q-53 -132 -171 -132h-118v26q39 0 39 44v610q0 23 -7 34q-7 9 -32 9v27h139q189 0 189 -371zM339 380q0 138 -34 234q-41 110 -116 110q-46 0 -55 -14
q-6 -9 -6 -29v-610q0 -44 58 -44q71 0 114 113q39 100 39 240z" />
    <glyph glyph-name="uni2415" unicode="&#x2415;" 
d="M842 449q0 -18 -14 -29q-14 -10 -32 -10q-48 0 -48 38q0 21 36 36q-31 6 -31 31q0 35 43 35q42 0 42 -32q0 -23 -30 -32q34 -11 34 -37zM827 518q0 20 -31 20q-32 0 -32 -23q0 -14 32 -26q31 12 31 29zM831 449q0 11 -15 21q-14 9 -26 10q-30 -18 -30 -32q0 -27 36 -27
q13 0 24 8t11 20zM705 518q-34 -113 -120 -113q-63 0 -99 64q-32 52 -32 121q0 71 30 125q36 66 101 66q12 0 33 -6q18 -6 27 -6q13 0 28 12l24 -92l-12 -4q-30 80 -100 80q-50 0 -76 -62q-19 -47 -19 -105q0 -64 24 -108q28 -54 87 -54q49 0 91 83zM968 166
q0 -109 -70 -217l-8 -4q-3 1 -4 4q51 110 51 217t-58 228q0 1 4 4l7 -4q78 -111 78 -228zM862 0h-78v12q16 0 16 12q-1 2 -4 11l-64 148l-30 -46v-97q0 -20 4 -24q3 -4 20 -4v-12h-79v12q28 0 28 27v270q0 14 -5 19q-8 4 -23 4v12h79v-12q-14 0 -20 -4q-4 -5 -4 -19v-141
l91 138q8 13 8 19q0 7 -19 7v12h69v-12q-23 0 -39 -27l-59 -94l78 -172q9 -22 31 -27v-12zM429 685h-12q-26 40 -39 53q-27 25 -59 25q-23 0 -23 -28v-279q0 -31 70 -31v-15h-179v15q74 0 74 31v279q0 28 -28 28q-51 0 -93 -78h-12l19 93h266zM611 0h-89v12q30 0 30 16v1
q-1 1 -1.5 3.5t-1.5 6.5t-2.5 9.5t-2.5 12.5l-17 72h-85l-22 -84q-7 -22 -7 -25q0 -12 26 -12v-12h-71v12q18 0 23 8q1 1 8 23l84 301l16 8l79 -309q7 -31 33 -31v-12zM523 144l-38 147l-40 -147h78zM346 330q-14 0 -16 -6q-3 -6 -3 -21v-303h-16l-145 287v-252
q0 -23 28 -23v-12h-71v12q24 0 24 23v268q0 27 -24 27v12h51l133 -260v222q0 26 -31 26v12h70v-12zM121 394q-58 -117 -58 -228q0 -108 51 -217l-4 -4l-8 4q-70 106 -70 217q0 117 78 228l7 4q2 0 4 -4z" />
    <glyph glyph-name="uni2416" unicode="&#x2416;" 
d="M855 475q0 -65 -55 -65q-47 0 -47 26q0 11 13 11t13 -9q0 -3 -10 -10q1 -10 32 -10q34 0 34 57q-16 -15 -40 -15q-46 0 -46 47q0 46 51 46q55 0 55 -78zM835 487q0 59 -35 59q-31 0 -31 -39t27 -39q21 0 39 19zM705 518q-34 -113 -120 -113q-63 0 -99 64q-32 52 -32 121
q0 71 30 125q36 66 101 66q12 0 33 -6q18 -6 27 -6q13 0 28 12l24 -92l-12 -4q-30 80 -100 80q-50 0 -76 -62q-19 -47 -19 -105q0 -64 24 -108q28 -54 87 -54q49 0 91 83zM968 166q0 -109 -70 -217l-8 -4q-3 1 -4 4q51 110 51 217t-58 228q0 1 4 4l7 -4q78 -111 78 -228z
M866 330q-14 0 -16 -6q-3 -6 -3 -21v-303h-16l-144 287v-252q0 -23 27 -23v-12h-70v12q23 0 23 23v268q0 27 -23 27v12h50l133 -260v222q0 26 -31 26v12h70v-12zM429 685h-12q-26 40 -39 53q-27 25 -59 25q-23 0 -23 -28v-279q0 -31 70 -31v-15h-179v15q74 0 74 31v279
q0 28 -28 28q-51 0 -93 -78h-12l19 93h266zM601 328q-26 0 -35 -24l-59 -167v-102q0 -12 5.5 -18t17.5 -5v-12h-86v12q28 -2 28 23v102l-67 160q-14 31 -39 31v12h94v-12q-27 0 -27 -12q0 -10 62 -171q59 160 59 168q0 15 -32 15v12h79v-12zM335 94q0 -40 -29 -67
q-30 -27 -69 -27q-15 0 -35 8q-26 8 -35 8q-14 0 -23 -12l-36 102l12 3q16 -35 47 -63q32 -32 68 -32q30 0 49 20q20 22 20 52q0 16 -14 38q-13 18 -29 24l-71 24q-62 21 -62 82q0 41 24 68q24 26 66 26q23 0 39 -8q21 -12 23 -12q8 0 20 12l27 -94h-8q-21 41 -38 61
q-27 29 -63 29q-59 0 -59 -70q0 -31 21 -46q11 -11 48 -22q53 -18 71 -29q36 -24 36 -75zM121 394q-58 -117 -58 -228q0 -108 51 -217l-4 -4l-8 4q-70 106 -70 217q0 117 78 228l7 4q2 0 4 -4z" />
    <glyph glyph-name="uni2417" unicode="&#x2417;" 
d="M862 480q0 -71 -31 -71q-27 0 -27 71q0 37 2 44q5 28 25 28q31 0 31 -72zM851 480q0 66 -20 66q-16 0 -16 -66q0 -65 16 -65q20 0 20 65zM790 410h-50v5q16 0 16 12v98q0 10 -9 10h-7v5q17 0 24 11h8v-124q0 -12 18 -12v-5zM705 518q-34 -113 -120 -113q-63 0 -99 64
q-32 52 -32 121q0 71 30 125q36 66 101 66q12 0 33 -6q18 -6 27 -6q13 0 28 12l24 -92l-12 -4q-30 80 -100 80q-50 0 -76 -62q-19 -47 -19 -105q0 -64 24 -108q28 -54 87 -54q49 0 91 83zM968 166q0 -109 -70 -217l-8 -4q-3 1 -4 4q51 110 51 217t-58 228q0 1 4 4l7 -4
q78 -111 78 -228zM882 90q0 -40 -27 -67t-63 -27h-156v12q51 -2 51 27v261q0 27 -51 27v12h147q35 0 61 -23q26 -24 26 -58q0 -56 -57 -75q69 -12 69 -89zM835 254q0 69 -72 69h-13q-32 0 -32 -27v-112h62q23 0 39 23q16 24 16 47zM847 90q0 82 -67 82h-62v-137
q0 -27 54 -27q75 0 75 82zM429 685h-12q-26 40 -39 53q-27 25 -59 25q-23 0 -23 -28v-279q0 -31 70 -31v-15h-179v15q74 0 74 31v279q0 28 -28 28q-51 0 -93 -78h-12l19 93h266zM620 254h-8q-21 39 -27 48q-22 25 -47 25q-16 0 -16 -23v-261q0 -31 51 -31v-12h-125v12
q47 -2 47 31v261q0 23 -19 23q-38 0 -75 -73h-7l15 85h199zM354 90l-11 -90h-235v12q51 -2 51 27v261q0 27 -51 27v12h235l8 -93h-8q-24 49 -40 64q-23 17 -73 17q-40 0 -40 -27v-116h55q27 0 27 82h12v-184h-12l1 15q0 75 -28 75h-55v-133q0 -28 44 -28q52 0 72 16
q17 11 41 63h7zM121 394q-58 -117 -58 -228q0 -108 51 -217l-4 -4l-8 4q-70 106 -70 217q0 117 78 228l7 4q2 0 4 -4z" />
    <glyph glyph-name="uni2418" unicode="&#x2418;" 
d="M940 707q-9 0 -18 -9q-9 -10 -9 -27v-668h-23l-196 622v-543q0 -24 6 -30t29 -6v-43h-101v43q35 0 35 39v579q0 43 -35 43v43h66l188 -560v474q0 17 -3 26q-6 17 -36 17v43h97v-43zM593 3h-110v43q36 0 36 15q0 3 -0.5 7.5t-1.5 13t-2 15.5l-28 175h-113l-35 -175
q-4 -19 -4 -35q3 -7 19 -11q12 -5 24 -5v-43h-102v43q24 0 36 54l117 637l15 12l114 -656q3 -24 7 -33q7 -14 28 -14v-43zM479 315l-50 313l-47 -313h97zM288 226q-39 -226 -113 -226q-125 0 -125 358q0 110 21 221q31 171 100 171q16 0 38 -16q21 -15 24 -15q10 0 24 23
l23 -184l-19 -7q-16 63 -27 92q-26 60 -63 60q-43 0 -62 -147q-12 -92 -12 -182q0 -128 8 -177q18 -123 74 -123q31 0 54 48q14 29 36 112z" />
    <glyph glyph-name="uni2419" unicode="&#x2419;" 
d="M952 1h-133v23q43 0 43 59v601l-160 -683l-152 706v-624q0 -51 23 -57q5 -2 22 -2v-23h-118v23q29 0 37 17q6 12 6 42v596q0 48 -44 48v24h115l123 -581l137 581h101v-24q-39 -1 -39 -23v-621q0 -59 39 -59v-23zM448 196l-19 -195h-379v23q34 0 48 17q10 15 10 50v578
q0 30 -13 45q-15 13 -45 13v24h379l15 -192h-11q-37 95 -68 126q-43 42 -132 42q-40 0 -54 -8q-20 -11 -20 -50v-274h96q51 0 51 125h17v-277h-17q0 59 -8 88q-12 41 -43 41h-96v-281q0 -45 26 -58q15 -9 65 -9q87 0 129 45q29 32 61 127h8z" />
    <glyph glyph-name="uni241A" unicode="&#x241a;" 
d="M944 212q0 -72 -25 -133q-33 -78 -99 -78h-149v32q39 0 39 57v575q0 19 -8 40q-6 14 -31 14v32h137q60 0 93 -56q28 -50 28 -122q0 -61 -14 -98q-18 -48 -61 -77q45 -18 69 -74q21 -49 21 -112zM890 573q0 146 -90 146q-27 0 -35 -2q-16 -6 -16 -26v-279h70q32 0 53 65
q18 51 18 96zM905 212q0 168 -86 168h-70v-290q0 -49 27 -55q7 -2 32 -2q49 0 76 60q21 48 21 119zM632 722q-24 0 -24 -21v-508q0 -62 -23 -119q-31 -73 -86 -73q-69 0 -90 83q-12 42 -12 138v450q0 28 -6 37q-10 13 -37 13v29h114v-29q-29 0 -35 -12q-4 -7 -4 -38v-458
q0 -160 70 -160q82 0 82 160v451q0 57 -27 57v29h78v-29zM327 201q0 -73 -24 -127q-31 -73 -93 -73q-26 0 -54 17q-33 18 -36 18q-6 0 -19 -25l-43 211l11 7q54 -196 137 -196q40 0 64 57q18 45 18 93q0 93 -51 129l-86 60q-74 52 -74 172q0 70 21 127q30 80 89 80
q17 0 45 -23q23 -23 29 -23q11 0 23 21l35 -193l-11 -7q-36 124 -62 160q-27 36 -59 36q-40 0 -58 -55q-13 -38 -13 -91q0 -92 51 -125l86 -57q74 -51 74 -193z" />
    <glyph glyph-name="uni241B" unicode="&#x241b;" 
d="M948 231q-47 -231 -133 -231q-76 0 -112 149q-24 101 -24 220q0 120 22 220q36 161 114 161q17 0 41 -15t26 -15q10 0 27 26l24 -177l-8 -8q0 1 -1.5 7.5t-2.5 11.5q-33 136 -106 136q-54 0 -80 -140q-17 -88 -17 -192q0 -115 18 -196q28 -127 95 -127q60 0 106 173z
M624 203q0 -68 -23 -126q-31 -77 -90 -77q-18 0 -45 18q-29 17 -33 17q-16 0 -24 -23l-39 211l12 7q17 -70 43 -119q39 -80 82 -80q40 0 64 59q18 45 18 94q0 92 -47 128q-50 36 -82 61q-70 51 -70 169q0 70 19 127q27 81 82 81q21 0 45 -22q22 -23 26 -23q7 0 19 22
l31 -192l-11 -8q-22 79 -23 83q-17 51 -32 76q-25 34 -55 34q-36 0 -54 -58q-12 -40 -12 -89q0 -94 47 -125q9 -6 36 -24.5t46 -31.5q70 -49 70 -189zM339 201l-16 -200h-269v31q25 -1 34 17q5 10 5 40v577q0 29 -5 39q-9 15 -34 15v31h269l12 -200h-12q-24 88 -39 113
q-33 56 -97 56q-33 0 -43 -12q-12 -12 -12 -42v-270h71q15 0 27 23q8 16 8 100h15v-276h-15q0 89 -8 103q-12 20 -27 20h-71v-277q0 -40 17 -50q10 -7 53 -7q58 0 82 42q23 41 43 127h12z" />
    <glyph glyph-name="uni241C" unicode="&#x241c;" 
d="M844 442h-24v-19q0 -11 11 -11h5v-6h-53v6h9q15 0 15 11v19h-63v8l67 97h9v-96h24v-9zM807 451v73l-52 -73h52zM702 508q0 -50 -39 -77q-35 -25 -86 -25q-19 0 -43 8q-30 8 -43 8q-15 0 -27 -12l-43 106l12 3q22 -40 58 -67q39 -30 78 -30q38 0 64 20q30 21 30 58
q0 34 -35 55q-19 11 -68 26q-61 18 -79 30q-41 23 -41 69q0 45 34 73t80 28q28 0 50 -8l28 -11q10 0 23 7l35 -97h-11q-33 48 -50 65q-34 29 -75 29q-32 0 -54 -19q-21 -19 -21 -52q0 -34 29 -51q18 -12 68 -24q61 -17 86 -33q40 -29 40 -79zM968 166q0 -109 -70 -217l-8 -4
q-3 1 -4 4q51 110 51 217t-58 228q0 1 4 4l7 -4q78 -111 78 -228zM882 94q0 -52 -59 -76q-43 -18 -101 -18q-39 0 -72 8q-40 8 -42 8q-18 0 -35 -12l-51 98l16 3q26 -42 86 -70q47 -23 90 -23q50 0 80 17q37 20 37 57q0 41 -70 58l-117 28q-98 22 -98 78q0 49 50 74
q40 20 94 20q30 0 67 -8q29 -8 35 -8q14 0 27 8l47 -90h-15q-78 84 -160 84q-94 0 -94 -68q0 -26 36 -42q21 -11 82 -25q84 -21 111 -33q56 -26 56 -68zM382 410h-250v16q105 0 105 33v279q0 23 -73 23h-32v17h250v-17h-59q-47 0 -47 -23v-279q0 -33 106 -33v-16zM487 250
h-11q-42 54 -84 69q-27 9 -109 9q-50 0 -50 -33v-113h86q39 0 39 52h16v-121h-16q0 26 -6 38q-10 16 -33 16h-86v-123q0 -28 63 -27v-13h-160v13l12 -1q39 0 39 28v251q0 33 -51 33v12h340zM121 394q-58 -117 -58 -228q0 -108 51 -217l-4 -4l-8 4q-70 106 -70 217
q0 117 78 228l7 4q2 0 4 -4z" />
    <glyph glyph-name="uni241D" unicode="&#x241d;" 
d="M843 445q0 -39 -51 -39q-47 0 -47 28q0 11 12 11q10 0 10 -7q0 -2 -9 -11q0 -13 34 -13q35 0 35 31q0 14 -16 24q-13 8 -25 8v3q12 0 24 8q13 10 13 24q0 23 -31 23t-31 -13q15 -6 15 -10q0 -7 -10 -7q-13 0 -13 14q0 28 43 28t43 -34q0 -14 -9 -23q-12 -10 -22 -10
q35 -9 35 -35zM702 508q0 -50 -39 -77q-35 -25 -86 -25q-19 0 -43 8q-30 8 -43 8q-15 0 -27 -12l-43 106l12 3q22 -40 58 -67q39 -30 78 -30q38 0 64 20q30 21 30 58q0 34 -35 55q-19 11 -68 26q-61 18 -79 30q-41 23 -41 69q0 45 34 73t80 28q28 0 50 -8l28 -11q10 0 23 7
l35 -97h-11q-33 48 -50 65q-34 29 -75 29q-32 0 -54 -19q-21 -19 -21 -52q0 -34 29 -51q18 -12 68 -24q61 -17 86 -33q40 -29 40 -79zM968 166q0 -109 -70 -217l-8 -4q-3 1 -4 4q51 110 51 217t-58 228q0 1 4 4l7 -4q78 -111 78 -228zM882 94q0 -52 -59 -76
q-43 -18 -101 -18q-39 0 -72 8q-40 8 -42 8q-18 0 -35 -12l-51 98l16 3q26 -42 86 -70q47 -23 90 -23q50 0 80 17q37 20 37 57q0 41 -70 58l-117 28q-98 22 -98 78q0 49 50 74q40 20 94 20q30 0 67 -8q29 -8 35 -8q14 0 27 8l47 -90h-15q-78 84 -160 84q-94 0 -94 -68
q0 -26 36 -42q21 -11 82 -25q84 -21 111 -33q56 -26 56 -68zM382 410h-250v16q105 0 105 33v279q0 23 -73 23h-32v17h250v-17h-59q-47 0 -47 -23v-279q0 -33 106 -33v-16zM476 144q-39 0 -39 -23v-102q-35 0 -75 -7q-52 -12 -62 -12q-77 0 -130 43q-58 46 -58 121
q0 180 188 180q4 0 42 -4q24 -4 40 -4q19 0 39 8l31 -82l-15 -4q-65 70 -137 70q-68 0 -106 -50q-35 -44 -35 -114q0 -68 37 -106q36 -40 104 -40q28 0 58 12q36 15 36 40v51q0 23 -67 23v12h149v-12zM121 394q-58 -117 -58 -228q0 -108 51 -217l-4 -4l-8 4q-70 106 -70 217
q0 117 78 228l7 4q2 0 4 -4z" />
    <glyph glyph-name="uni241E" unicode="&#x241e;" 
d="M847 442l-4 -31h-94q0 31 41 57q41 27 41 49q0 23 -35 23t-35 -23q0 -4 7 -7q8 -3 8 -8q0 -7 -11 -7q-12 0 -12 18q0 39 43 39q51 0 51 -35q0 -18 -16 -32q-6 -6 -33 -21q-34 -22 -37 -41h62q11 0 20 19h4zM702 508q0 -50 -39 -77q-35 -25 -86 -25q-19 0 -43 8
q-30 8 -43 8q-15 0 -27 -12l-43 106l12 3q22 -40 58 -67q39 -30 78 -30q38 0 64 20q30 21 30 58q0 34 -35 55q-19 11 -68 26q-61 18 -79 30q-41 23 -41 69q0 45 34 73t80 28q28 0 50 -8l28 -11q10 0 23 7l35 -97h-11q-33 48 -50 65q-34 29 -75 29q-32 0 -54 -19
q-21 -19 -21 -52q0 -34 29 -51q18 -12 68 -24q61 -17 86 -33q40 -29 40 -79zM968 166q0 -109 -70 -217l-8 -4q-3 1 -4 4q51 110 51 217t-58 228q0 1 4 4l7 -4q78 -111 78 -228zM882 94q0 -52 -59 -76q-43 -18 -101 -18q-39 0 -72 8q-40 8 -42 8q-18 0 -35 -12l-51 98l16 3
q26 -42 86 -70q47 -23 90 -23q50 0 80 17q37 20 37 57q0 41 -70 58l-117 28q-98 22 -98 78q0 49 50 74q40 20 94 20q30 0 67 -8q29 -8 35 -8q14 0 27 8l47 -90h-15q-78 84 -160 84q-94 0 -94 -68q0 -26 36 -42q21 -11 82 -25q84 -21 111 -33q56 -26 56 -68zM382 410h-250v16
q105 0 105 33v279q0 23 -73 23h-32v17h250v-17h-59q-47 0 -47 -23v-279q0 -33 106 -33v-16zM499 1h-86l-126 164h-61v-125q0 -27 50 -27v-12h-140v12q51 0 51 27v262q0 23 -51 23v12h191q43 0 81 -22q40 -26 40 -68q0 -82 -118 -82l103 -129q17 -23 66 -23v-12zM405 251
q0 47 -49 65q-30 9 -89 9q-41 0 -41 -23v-125h87q92 0 92 74zM121 394q-58 -117 -58 -228q0 -108 51 -217l-4 -4l-8 4q-70 106 -70 217q0 117 78 228l7 4q2 0 4 -4z" />
    <glyph glyph-name="uni241F" unicode="&#x241f;" 
d="M866 410h-109v9h18q29 0 29 18v91h-51v11q39 0 59 12h15v-114q0 -18 39 -18v-9zM702 508q0 -50 -39 -77q-35 -25 -86 -25q-19 0 -43 8q-30 8 -43 8q-15 0 -27 -12l-43 106l12 3q22 -40 58 -67q39 -30 78 -30q38 0 64 20q30 21 30 58q0 34 -35 55q-19 11 -68 26
q-61 18 -79 30q-41 23 -41 69q0 45 34 73t80 28q28 0 50 -8l28 -11q10 0 23 7l35 -97h-11q-33 48 -50 65q-34 29 -75 29q-32 0 -54 -19q-21 -19 -21 -52q0 -34 29 -51q18 -12 68 -24q61 -17 86 -33q40 -29 40 -79zM968 166q0 -109 -70 -217l-8 -4q-3 1 -4 4q51 110 51 217
t-58 228q0 1 4 4l7 -4q78 -111 78 -228zM882 94q0 -52 -59 -76q-43 -18 -101 -18q-39 0 -72 8q-40 8 -42 8q-18 0 -35 -12l-51 98l16 3q26 -42 86 -70q47 -23 90 -23q50 0 80 17q37 20 37 57q0 41 -70 58l-117 28q-98 22 -98 78q0 49 50 74q40 20 94 20q30 0 67 -8
q29 -8 35 -8q14 0 27 8l47 -90h-15q-78 84 -160 84q-94 0 -94 -68q0 -26 36 -42q21 -11 82 -25q84 -21 111 -33q56 -26 56 -68zM382 410h-250v16q105 0 105 33v279q0 23 -73 23h-32v17h250v-17h-59q-47 0 -47 -23v-279q0 -33 106 -33v-16zM487 327q-39 0 -39 -24v-210
q0 -48 -44 -74q-34 -20 -89 -20q-57 0 -90 23q-42 26 -42 79v203q0 23 -55 23v13h144v-13h-18q-28 0 -28 -23v-196q0 -86 89 -86q110 0 110 86v193q0 26 -39 26v13h101v-13zM121 394q-58 -117 -58 -228q0 -108 51 -217l-4 -4l-8 4q-70 106 -70 217q0 117 78 228l7 4
q2 0 4 -4z" />
    <glyph glyph-name="uni2421" unicode="&#x2421;" 
d="M956 204l-12 -203h-269v31q43 0 43 63v574q0 25 -7 37q-9 14 -36 14v31h125v-31q-27 0 -36 -14q-7 -10 -7 -37v-574q0 -37 13 -49q13 -14 49 -14q70 0 98 55q12 25 27 117h12zM628 196l-16 -195h-265v31q39 0 39 52v588q0 24 -7 35q-10 13 -32 13v31h265l12 -199h-12
q-22 84 -37 113q-34 55 -99 55q-34 0 -42 -10q-9 -10 -9 -45v-262h71q28 0 27 117h19v-269h-19q0 121 -27 121h-71v-281q0 -34 15 -46q14 -13 51 -13q58 0 89 56q15 27 36 108h12zM319 380q0 -136 -23 -233q-36 -147 -121 -147h-121v31q13 -1 20 14t7 45v579q0 51 -27 51v31
h112q153 0 153 -371zM284 380q0 340 -113 340q-28 0 -40 -10q-11 -11 -11 -45v-575q0 -59 51 -59q113 0 113 349z" />
    <glyph glyph-name="uni2460" unicode="&#xf6b1;" 
d="M985 358q0 -201 -142 -343q-144 -142 -343 -142q-201 0 -343 142q-142 141 -142 343q0 201 142 343t343 142q199 0 343 -142q142 -144 142 -343zM921 358q0 174 -123 298q-124 123 -298 123q-175 0 -298 -123q-123 -124 -123 -298q0 -175 123 -298t298 -123
q174 0 298 123q123 123 123 298zM560 19h-89v524h-128v53q49 0 90 21q45 24 63 71h64v-669z" />
    <glyph glyph-name="uni2460" unicode="&#x2460;" 
d="M985 358q0 -201 -142 -343q-144 -142 -343 -142q-201 0 -343 142q-142 141 -142 343q0 201 142 343t343 142q199 0 343 -142q142 -144 142 -343zM921 358q0 174 -123 298q-124 123 -298 123q-175 0 -298 -123q-123 -124 -123 -298q0 -175 123 -298t298 -123
q174 0 298 123q123 123 123 298zM560 19h-89v524h-128v53q49 0 90 21q45 24 63 71h64v-669z" />
    <glyph glyph-name="uni2461" unicode="&#xf6b2;" 
d="M985 358q0 -201 -142 -343q-144 -142 -343 -142q-201 0 -343 142q-142 141 -142 343q0 201 142 343t343 142q199 0 343 -142q142 -144 142 -343zM921 358q0 174 -123 298q-124 123 -298 123q-175 0 -298 -123q-123 -124 -123 -298q0 -175 123 -298t298 -123
q174 0 298 123q123 123 123 298zM707 523q0 -66 -44 -130q-28 -39 -104 -111q-124 -117 -149 -181h296v-82h-410q21 98 80 180q38 54 128 138q69 64 92 102t23 84q0 90 -120 90q-116 0 -124 -154l-80 30q9 94 63 151q53 55 141 55q92 0 150 -44q58 -49 58 -128z" />
    <glyph glyph-name="uni2461" unicode="&#x2461;" 
d="M985 358q0 -201 -142 -343q-144 -142 -343 -142q-201 0 -343 142q-142 141 -142 343q0 201 142 343t343 142q199 0 343 -142q142 -144 142 -343zM921 358q0 174 -123 298q-124 123 -298 123q-175 0 -298 -123q-123 -124 -123 -298q0 -175 123 -298t298 -123
q174 0 298 123q123 123 123 298zM707 523q0 -66 -44 -130q-28 -39 -104 -111q-124 -117 -149 -181h296v-82h-410q21 98 80 180q38 54 128 138q69 64 92 102t23 84q0 90 -120 90q-116 0 -124 -154l-80 30q9 94 63 151q53 55 141 55q92 0 150 -44q58 -49 58 -128z" />
    <glyph glyph-name="uni2462" unicode="&#xf6b3;" 
d="M985 358q0 -201 -142 -343q-144 -142 -343 -142q-201 0 -343 142q-142 141 -142 343q0 201 142 343t343 142q199 0 343 -142q142 -144 142 -343zM921 358q0 174 -123 298q-124 123 -298 123q-175 0 -298 -123q-123 -124 -123 -298q0 -175 123 -298t298 -123
q174 0 298 123q123 123 123 298zM708 200q0 -82 -60 -135q-59 -53 -151 -53q-167 0 -203 161l80 25q24 -101 123 -101q121 0 121 103q0 119 -113 119h-79v82h67q39 0 72 33q32 34 32 83q0 93 -95 93q-86 0 -104 -97l-81 25q13 68 58 110q49 47 127 47q84 0 135 -48
q50 -48 50 -130q0 -96 -86 -147q107 -45 107 -170z" />
    <glyph glyph-name="uni2462" unicode="&#x2462;" 
d="M985 358q0 -201 -142 -343q-144 -142 -343 -142q-201 0 -343 142q-142 141 -142 343q0 201 142 343t343 142q199 0 343 -142q142 -144 142 -343zM921 358q0 174 -123 298q-124 123 -298 123q-175 0 -298 -123q-123 -124 -123 -298q0 -175 123 -298t298 -123
q174 0 298 123q123 123 123 298zM708 200q0 -82 -60 -135q-59 -53 -151 -53q-167 0 -203 161l80 25q24 -101 123 -101q121 0 121 103q0 119 -113 119h-79v82h67q39 0 72 33q32 34 32 83q0 93 -95 93q-86 0 -104 -97l-81 25q13 68 58 110q49 47 127 47q84 0 135 -48
q50 -48 50 -130q0 -96 -86 -147q107 -45 107 -170z" />
    <glyph glyph-name="uni2463" unicode="&#xf6b4;" 
d="M985 358q0 -201 -142 -343q-144 -142 -343 -142q-201 0 -343 142q-142 141 -142 343q0 201 142 343t343 142q199 0 343 -142q142 -144 142 -343zM921 358q0 174 -123 298q-124 123 -298 123q-175 0 -298 -123q-123 -124 -123 -298q0 -175 123 -298t298 -123
q174 0 298 123q123 123 123 298zM697 171h-80v-152h-89v152h-273v82l281 435h81v-435h80v-82zM528 253v281l-177 -281h177z" />
    <glyph glyph-name="uni2463" unicode="&#x2463;" 
d="M985 358q0 -201 -142 -343q-144 -142 -343 -142q-201 0 -343 142q-142 141 -142 343q0 201 142 343t343 142q199 0 343 -142q142 -144 142 -343zM921 358q0 174 -123 298q-124 123 -298 123q-175 0 -298 -123q-123 -124 -123 -298q0 -175 123 -298t298 -123
q174 0 298 123q123 123 123 298zM697 171h-80v-152h-89v152h-273v82l281 435h81v-435h80v-82zM528 253v281l-177 -281h177z" />
    <glyph glyph-name="uni2464" unicode="&#xf6b5;" 
d="M985 358q0 -201 -142 -343q-144 -142 -343 -142q-201 0 -343 142q-142 141 -142 343q0 201 142 343t343 142q199 0 343 -142q142 -144 142 -343zM921 358q0 174 -123 298q-124 123 -298 123q-175 0 -298 -123q-123 -124 -123 -298q0 -175 123 -298t298 -123
q174 0 298 123q123 123 123 298zM706 255q0 -114 -64 -181q-59 -62 -150 -62q-142 0 -196 144l77 33q37 -92 119 -92q124 0 124 158q0 80 -24 113q-26 33 -79 33q-43 0 -72 -19q-24 -16 -42 -53h-78v359h358v-82h-269v-164q46 42 103 42q90 0 141 -62q52 -63 52 -167z" />
    <glyph glyph-name="uni2464" unicode="&#x2464;" 
d="M985 358q0 -201 -142 -343q-144 -142 -343 -142q-201 0 -343 142q-142 141 -142 343q0 201 142 343t343 142q199 0 343 -142q142 -144 142 -343zM921 358q0 174 -123 298q-124 123 -298 123q-175 0 -298 -123q-123 -124 -123 -298q0 -175 123 -298t298 -123
q174 0 298 123q123 123 123 298zM706 255q0 -114 -64 -181q-59 -62 -150 -62q-142 0 -196 144l77 33q37 -92 119 -92q124 0 124 158q0 80 -24 113q-26 33 -79 33q-43 0 -72 -19q-24 -16 -42 -53h-78v359h358v-82h-269v-164q46 42 103 42q90 0 141 -62q52 -63 52 -167z" />
    <glyph glyph-name="uni2465" unicode="&#xf6b6;" 
d="M985 358q0 -201 -142 -343q-144 -142 -343 -142q-201 0 -343 142q-142 141 -142 343q0 201 142 343t343 142q199 0 343 -142q142 -144 142 -343zM921 358q0 174 -123 298q-124 123 -298 123q-175 0 -298 -123q-123 -124 -123 -298q0 -175 123 -298t298 -123
q174 0 298 123q123 123 123 298zM725 232q0 -84 -55 -148q-63 -72 -165 -72q-228 0 -228 330q0 353 228 353q141 0 196 -138l-81 -32q-19 43 -38 60q-28 25 -77 25q-124 0 -139 -223q67 56 144 56q101 0 161 -63q54 -60 54 -148zM635 232q0 126 -125 126q-42 0 -82 -17
q-42 -18 -62 -47q4 -93 31 -137q33 -60 108 -60q130 0 130 135z" />
    <glyph glyph-name="uni2465" unicode="&#x2465;" 
d="M985 358q0 -201 -142 -343q-144 -142 -343 -142q-201 0 -343 142q-142 141 -142 343q0 201 142 343t343 142q199 0 343 -142q142 -144 142 -343zM921 358q0 174 -123 298q-124 123 -298 123q-175 0 -298 -123q-123 -124 -123 -298q0 -175 123 -298t298 -123
q174 0 298 123q123 123 123 298zM725 232q0 -84 -55 -148q-63 -72 -165 -72q-228 0 -228 330q0 353 228 353q141 0 196 -138l-81 -32q-19 43 -38 60q-28 25 -77 25q-124 0 -139 -223q67 56 144 56q101 0 161 -63q54 -60 54 -148zM635 232q0 126 -125 126q-42 0 -82 -17
q-42 -18 -62 -47q4 -93 31 -137q33 -60 108 -60q130 0 130 135z" />
    <glyph glyph-name="uni2466" unicode="&#xf6b7;" 
d="M985 358q0 -201 -142 -343q-144 -142 -343 -142q-201 0 -343 142q-142 141 -142 343q0 201 142 343t343 142q199 0 343 -142q142 -144 142 -343zM921 358q0 174 -123 298q-124 123 -298 123q-175 0 -298 -123q-123 -124 -123 -298q0 -175 123 -298t298 -123
q174 0 298 123q123 123 123 298zM718 613q-130 -128 -172 -272q-32 -105 -32 -322h-94q0 193 37 320q42 148 145 267h-318v82h434v-75z" />
    <glyph glyph-name="uni2466" unicode="&#x2466;" 
d="M985 358q0 -201 -142 -343q-144 -142 -343 -142q-201 0 -343 142q-142 141 -142 343q0 201 142 343t343 142q199 0 343 -142q142 -144 142 -343zM921 358q0 174 -123 298q-124 123 -298 123q-175 0 -298 -123q-123 -124 -123 -298q0 -175 123 -298t298 -123
q174 0 298 123q123 123 123 298zM718 613q-130 -128 -172 -272q-32 -105 -32 -322h-94q0 193 37 320q42 148 145 267h-318v82h434v-75z" />
    <glyph glyph-name="uni2467" unicode="&#xf6b8;" 
d="M985 358q0 -201 -142 -343q-144 -142 -343 -142q-201 0 -343 142q-142 141 -142 343q0 201 142 343t343 142q199 0 343 -142q142 -144 142 -343zM921 358q0 174 -123 298q-124 123 -298 123q-175 0 -298 -123q-123 -124 -123 -298q0 -175 123 -298t298 -123
q174 0 298 123q123 123 123 298zM716 206q0 -91 -56 -142q-55 -52 -157 -52q-103 0 -159 52q-58 51 -58 142q0 115 108 178q-85 51 -85 142q0 80 51 125q52 44 141 44q88 0 141 -44q51 -45 51 -125q0 -90 -85 -142q108 -63 108 -178zM602 519q0 93 -101 93t-101 -93
q0 -44 28 -71t74 -27q45 0 72 27q28 28 28 71zM626 209q0 63 -34 100q-33 35 -92 35q-57 0 -90 -35q-34 -35 -34 -100q0 -54 32 -83q31 -31 95 -31q123 0 123 114z" />
    <glyph glyph-name="uni2467" unicode="&#x2467;" 
d="M985 358q0 -201 -142 -343q-144 -142 -343 -142q-201 0 -343 142q-142 141 -142 343q0 201 142 343t343 142q199 0 343 -142q142 -144 142 -343zM921 358q0 174 -123 298q-124 123 -298 123q-175 0 -298 -123q-123 -124 -123 -298q0 -175 123 -298t298 -123
q174 0 298 123q123 123 123 298zM716 206q0 -91 -56 -142q-55 -52 -157 -52q-103 0 -159 52q-58 51 -58 142q0 115 108 178q-85 51 -85 142q0 80 51 125q52 44 141 44q88 0 141 -44q51 -45 51 -125q0 -90 -85 -142q108 -63 108 -178zM602 519q0 93 -101 93t-101 -93
q0 -44 28 -71t74 -27q45 0 72 27q28 28 28 71zM626 209q0 63 -34 100q-33 35 -92 35q-57 0 -90 -35q-34 -35 -34 -100q0 -54 32 -83q31 -31 95 -31q123 0 123 114z" />
    <glyph glyph-name="uni2468" unicode="&#xf6b9;" 
d="M985 358q0 -201 -142 -343q-144 -142 -343 -142q-201 0 -343 142q-142 141 -142 343q0 201 142 343t343 142q199 0 343 -142q142 -144 142 -343zM921 358q0 174 -123 298q-124 123 -298 123q-175 0 -298 -123q-123 -124 -123 -298q0 -175 123 -298t298 -123
q174 0 298 123q123 123 123 298zM703 344q0 -332 -219 -332q-120 0 -168 125l75 35q34 -77 93 -77q58 0 87 44q32 47 43 161q-58 -54 -124 -54q-88 0 -139 55q-52 53 -52 154q0 98 49 165q54 75 148 75q121 0 171 -110q36 -81 36 -241zM614 401q-6 214 -118 214
q-46 0 -77 -43q-30 -45 -30 -117q0 -126 108 -126q66 0 117 72z" />
    <glyph glyph-name="uni2468" unicode="&#x2468;" 
d="M985 358q0 -201 -142 -343q-144 -142 -343 -142q-201 0 -343 142q-142 141 -142 343q0 201 142 343t343 142q199 0 343 -142q142 -144 142 -343zM921 358q0 174 -123 298q-124 123 -298 123q-175 0 -298 -123q-123 -124 -123 -298q0 -175 123 -298t298 -123
q174 0 298 123q123 123 123 298zM703 344q0 -332 -219 -332q-120 0 -168 125l75 35q34 -77 93 -77q58 0 87 44q32 47 43 161q-58 -54 -124 -54q-88 0 -139 55q-52 53 -52 154q0 98 49 165q54 75 148 75q121 0 171 -110q36 -81 36 -241zM614 401q-6 214 -118 214
q-46 0 -77 -43q-30 -45 -30 -117q0 -126 108 -126q66 0 117 72z" />
    <glyph glyph-name="uni2469" unicode="&#xf6ba;" 
d="M985 358q0 -201 -142 -343q-144 -142 -343 -142q-201 0 -343 142q-142 141 -142 343q0 201 142 343t343 142q199 0 343 -142q142 -144 142 -343zM921 358q0 174 -123 298q-124 123 -298 123q-175 0 -298 -123q-123 -124 -123 -298q0 -175 123 -298t298 -123
q174 0 298 123q123 123 123 298zM813 356q0 -169 -40 -254q-43 -90 -138 -90q-96 0 -138 88q-40 80 -40 256q0 172 40 252q42 87 138 87q95 0 138 -87q40 -83 40 -252zM370 19h-87v526h-105v51q32 0 69 22q43 28 59 70h64v-669zM726 356q0 141 -23 202q-21 55 -68 55
q-48 0 -68 -55q-23 -57 -23 -202q0 -262 91 -262t91 262z" />
    <glyph glyph-name="uni2469" unicode="&#x2469;" 
d="M985 358q0 -201 -142 -343q-144 -142 -343 -142q-201 0 -343 142q-142 141 -142 343q0 201 142 343t343 142q199 0 343 -142q142 -144 142 -343zM921 358q0 174 -123 298q-124 123 -298 123q-175 0 -298 -123q-123 -124 -123 -298q0 -175 123 -298t298 -123
q174 0 298 123q123 123 123 298zM813 356q0 -169 -40 -254q-43 -90 -138 -90q-96 0 -138 88q-40 80 -40 256q0 172 40 252q42 87 138 87q95 0 138 -87q40 -83 40 -252zM370 19h-87v526h-105v51q32 0 69 22q43 28 59 70h64v-669zM726 356q0 141 -23 202q-21 55 -68 55
q-48 0 -68 -55q-23 -57 -23 -202q0 -262 91 -262t91 262z" />
    <glyph glyph-name="uni2474" unicode="&#xf6bb;" 
d="M985 362q0 -158 -75 -302q-51 -99 -129 -177l-56 66q67 68 111 154q63 123 63 259q0 134 -63 259q-44 86 -111 154l56 66q78 -78 129 -177q75 -144 75 -302zM559 19h-89v524h-128v53q50 0 90 21q45 24 63 71h64v-669zM275 -51l-56 -66q-78 78 -129 177q-75 144 -75 302
t75 302q51 99 129 177l56 -66q-68 -68 -111 -154q-63 -125 -63 -259q0 -136 63 -259q43 -86 111 -154z" />
    <glyph glyph-name="uni2474" unicode="&#x2474;" 
d="M985 362q0 -158 -75 -302q-51 -99 -129 -177l-56 66q67 68 111 154q63 123 63 259q0 134 -63 259q-44 86 -111 154l56 66q78 -78 129 -177q75 -144 75 -302zM559 19h-89v524h-128v53q50 0 90 21q45 24 63 71h64v-669zM275 -51l-56 -66q-78 78 -129 177q-75 144 -75 302
t75 302q51 99 129 177l56 -66q-68 -68 -111 -154q-63 -125 -63 -259q0 -136 63 -259q43 -86 111 -154z" />
    <glyph glyph-name="uni2475" unicode="&#xf6bc;" 
d="M707 523q0 -66 -44 -130q-32 -44 -104 -111q-124 -117 -149 -181h296v-82h-410q21 100 79 180q41 55 129 138q69 64 92 102t23 84q0 90 -120 90q-116 0 -124 -154l-80 30q9 94 63 151q53 55 141 55q93 0 149 -44q59 -48 59 -128zM985 362q0 -158 -75 -302
q-51 -99 -129 -177l-56 66q67 68 111 154q63 123 63 259q0 134 -63 259q-44 86 -111 154l56 66q78 -78 129 -177q75 -144 75 -302zM275 -51l-56 -66q-78 78 -129 177q-75 144 -75 302t75 302q51 99 129 177l56 -66q-68 -68 -111 -154q-63 -125 -63 -259q0 -136 63 -259
q43 -86 111 -154z" />
    <glyph glyph-name="uni2475" unicode="&#x2475;" 
d="M707 523q0 -66 -44 -130q-32 -44 -104 -111q-124 -117 -149 -181h296v-82h-410q21 100 79 180q41 55 129 138q69 64 92 102t23 84q0 90 -120 90q-116 0 -124 -154l-80 30q9 94 63 151q53 55 141 55q93 0 149 -44q59 -48 59 -128zM985 362q0 -158 -75 -302
q-51 -99 -129 -177l-56 66q67 68 111 154q63 123 63 259q0 134 -63 259q-44 86 -111 154l56 66q78 -78 129 -177q75 -144 75 -302zM275 -51l-56 -66q-78 78 -129 177q-75 144 -75 302t75 302q51 99 129 177l56 -66q-68 -68 -111 -154q-63 -125 -63 -259q0 -136 63 -259
q43 -86 111 -154z" />
    <glyph glyph-name="uni2476" unicode="&#xf6bd;" 
d="M708 200q0 -82 -60 -135t-151 -53q-169 0 -203 161l80 25q24 -101 123 -101q121 0 121 103q0 119 -113 119h-79v82h67q39 0 72 33q32 34 32 83q0 93 -95 93q-86 0 -104 -97l-81 25q13 68 57 110q50 47 128 47q84 0 135 -48q50 -48 50 -130q0 -96 -86 -147
q107 -45 107 -170zM985 362q0 -158 -75 -302q-51 -99 -129 -177l-56 66q67 68 111 154q63 123 63 259q0 134 -63 259q-44 86 -111 154l56 66q78 -78 129 -177q75 -144 75 -302zM275 -51l-56 -66q-78 78 -129 177q-75 144 -75 302t75 302q51 99 129 177l56 -66
q-68 -68 -111 -154q-63 -125 -63 -259q0 -136 63 -259q43 -86 111 -154z" />
    <glyph glyph-name="uni2476" unicode="&#x2476;" 
d="M708 200q0 -82 -60 -135t-151 -53q-169 0 -203 161l80 25q24 -101 123 -101q121 0 121 103q0 119 -113 119h-79v82h67q39 0 72 33q32 34 32 83q0 93 -95 93q-86 0 -104 -97l-81 25q13 68 57 110q50 47 128 47q84 0 135 -48q50 -48 50 -130q0 -96 -86 -147
q107 -45 107 -170zM985 362q0 -158 -75 -302q-51 -99 -129 -177l-56 66q67 68 111 154q63 123 63 259q0 134 -63 259q-44 86 -111 154l56 66q78 -78 129 -177q75 -144 75 -302zM275 -51l-56 -66q-78 78 -129 177q-75 144 -75 302t75 302q51 99 129 177l56 -66
q-68 -68 -111 -154q-63 -125 -63 -259q0 -136 63 -259q43 -86 111 -154z" />
    <glyph glyph-name="uni2477" unicode="&#xf6be;" 
d="M697 171h-80v-152h-89v152h-273v82l281 435h81v-435h80v-82zM528 253v281l-177 -281h177zM985 362q0 -158 -75 -302q-51 -99 -129 -177l-56 66q67 68 111 154q63 123 63 259q0 134 -63 259q-44 86 -111 154l56 66q78 -78 129 -177q75 -144 75 -302zM275 -51l-56 -66
q-78 78 -129 177q-75 144 -75 302t75 302q51 99 129 177l56 -66q-68 -68 -111 -154q-63 -125 -63 -259q0 -136 63 -259q43 -86 111 -154z" />
    <glyph glyph-name="uni2477" unicode="&#x2477;" 
d="M697 171h-80v-152h-89v152h-273v82l281 435h81v-435h80v-82zM528 253v281l-177 -281h177zM985 362q0 -158 -75 -302q-51 -99 -129 -177l-56 66q67 68 111 154q63 123 63 259q0 134 -63 259q-44 86 -111 154l56 66q78 -78 129 -177q75 -144 75 -302zM275 -51l-56 -66
q-78 78 -129 177q-75 144 -75 302t75 302q51 99 129 177l56 -66q-68 -68 -111 -154q-63 -125 -63 -259q0 -136 63 -259q43 -86 111 -154z" />
    <glyph glyph-name="uni2478" unicode="&#xf6bf;" 
d="M706 255q0 -114 -64 -181q-59 -62 -150 -62q-142 0 -196 144l77 33q37 -92 119 -92q124 0 124 158q0 80 -24 113q-26 33 -79 33q-45 0 -73 -19q-22 -15 -41 -53h-78v359h358v-82h-269v-164q46 42 103 42q88 0 141 -62q52 -63 52 -167zM985 362q0 -158 -75 -302
q-51 -99 -129 -177l-56 66q67 68 111 154q63 123 63 259q0 134 -63 259q-44 86 -111 154l56 66q78 -78 129 -177q75 -144 75 -302zM275 -51l-56 -66q-78 78 -129 177q-75 144 -75 302t75 302q51 99 129 177l56 -66q-68 -68 -111 -154q-63 -125 -63 -259q0 -136 63 -259
q43 -86 111 -154z" />
    <glyph glyph-name="uni2478" unicode="&#x2478;" 
d="M706 255q0 -114 -64 -181q-59 -62 -150 -62q-142 0 -196 144l77 33q37 -92 119 -92q124 0 124 158q0 80 -24 113q-26 33 -79 33q-45 0 -73 -19q-22 -15 -41 -53h-78v359h358v-82h-269v-164q46 42 103 42q88 0 141 -62q52 -63 52 -167zM985 362q0 -158 -75 -302
q-51 -99 -129 -177l-56 66q67 68 111 154q63 123 63 259q0 134 -63 259q-44 86 -111 154l56 66q78 -78 129 -177q75 -144 75 -302zM275 -51l-56 -66q-78 78 -129 177q-75 144 -75 302t75 302q51 99 129 177l56 -66q-68 -68 -111 -154q-63 -125 -63 -259q0 -136 63 -259
q43 -86 111 -154z" />
    <glyph glyph-name="uni2479" unicode="&#xf6c0;" 
d="M725 232q0 -84 -55 -148q-63 -72 -165 -72q-228 0 -228 330q0 353 228 353q139 0 196 -138l-81 -32q-22 45 -38 60q-28 25 -77 25q-124 0 -139 -223q65 56 144 56q102 0 160 -63q55 -61 55 -148zM635 232q0 126 -125 126q-44 0 -84 -18q-41 -18 -60 -46q3 -92 30 -137
q33 -60 109 -60q130 0 130 135zM985 362q0 -158 -75 -302q-51 -99 -129 -177l-56 66q67 68 111 154q63 123 63 259q0 134 -63 259q-44 86 -111 154l56 66q78 -78 129 -177q75 -144 75 -302zM275 -51l-56 -66q-78 78 -129 177q-75 144 -75 302t75 302q51 99 129 177l56 -66
q-68 -68 -111 -154q-63 -125 -63 -259q0 -136 63 -259q43 -86 111 -154z" />
    <glyph glyph-name="uni2479" unicode="&#x2479;" 
d="M725 232q0 -84 -55 -148q-63 -72 -165 -72q-228 0 -228 330q0 353 228 353q139 0 196 -138l-81 -32q-22 45 -38 60q-28 25 -77 25q-124 0 -139 -223q65 56 144 56q102 0 160 -63q55 -61 55 -148zM635 232q0 126 -125 126q-44 0 -84 -18q-41 -18 -60 -46q3 -92 30 -137
q33 -60 109 -60q130 0 130 135zM985 362q0 -158 -75 -302q-51 -99 -129 -177l-56 66q67 68 111 154q63 123 63 259q0 134 -63 259q-44 86 -111 154l56 66q78 -78 129 -177q75 -144 75 -302zM275 -51l-56 -66q-78 78 -129 177q-75 144 -75 302t75 302q51 99 129 177l56 -66
q-68 -68 -111 -154q-63 -125 -63 -259q0 -136 63 -259q43 -86 111 -154z" />
    <glyph glyph-name="uni247A" unicode="&#xf6c1;" 
d="M717 613q-130 -127 -173 -272q-31 -106 -31 -322h-94q0 193 37 320q42 148 145 267h-317v82h433v-75zM985 362q0 -158 -75 -302q-51 -99 -129 -177l-56 66q67 68 111 154q63 123 63 259q0 134 -63 259q-44 86 -111 154l56 66q78 -78 129 -177q75 -144 75 -302zM275 -51
l-56 -66q-78 78 -129 177q-75 144 -75 302t75 302q51 99 129 177l56 -66q-68 -68 -111 -154q-63 -125 -63 -259q0 -136 63 -259q43 -86 111 -154z" />
    <glyph glyph-name="uni247A" unicode="&#x247a;" 
d="M717 613q-130 -127 -173 -272q-31 -106 -31 -322h-94q0 193 37 320q42 148 145 267h-317v82h433v-75zM985 362q0 -158 -75 -302q-51 -99 -129 -177l-56 66q67 68 111 154q63 123 63 259q0 134 -63 259q-44 86 -111 154l56 66q78 -78 129 -177q75 -144 75 -302zM275 -51
l-56 -66q-78 78 -129 177q-75 144 -75 302t75 302q51 99 129 177l56 -66q-68 -68 -111 -154q-63 -125 -63 -259q0 -136 63 -259q43 -86 111 -154z" />
    <glyph glyph-name="uni247B" unicode="&#xf6c2;" 
d="M715 206q0 -90 -55 -142q-56 -52 -157 -52q-105 0 -161 52q-57 51 -57 142q0 115 109 178q-85 51 -85 142q0 80 51 125q52 44 140 44q87 0 140 -44q52 -46 52 -125q0 -90 -85 -142q108 -63 108 -178zM602 519q0 93 -102 93q-101 0 -101 -93q0 -45 29 -71q27 -27 74 -27
q45 0 72 27q28 28 28 71zM625 209q0 63 -34 100q-35 35 -92 35t-90 -35q-33 -36 -33 -100q0 -52 30 -82q32 -32 97 -32q122 0 122 114zM985 362q0 -158 -75 -302q-51 -99 -129 -177l-56 66q67 68 111 154q63 123 63 259q0 134 -63 259q-44 86 -111 154l56 66
q78 -78 129 -177q75 -144 75 -302zM275 -51l-56 -66q-78 78 -129 177q-75 144 -75 302t75 302q51 99 129 177l56 -66q-68 -68 -111 -154q-63 -125 -63 -259q0 -136 63 -259q43 -86 111 -154z" />
    <glyph glyph-name="uni247B" unicode="&#x247b;" 
d="M715 206q0 -90 -55 -142q-56 -52 -157 -52q-105 0 -161 52q-57 51 -57 142q0 115 109 178q-85 51 -85 142q0 80 51 125q52 44 140 44q87 0 140 -44q52 -46 52 -125q0 -90 -85 -142q108 -63 108 -178zM602 519q0 93 -102 93q-101 0 -101 -93q0 -45 29 -71q27 -27 74 -27
q45 0 72 27q28 28 28 71zM625 209q0 63 -34 100q-35 35 -92 35t-90 -35q-33 -36 -33 -100q0 -52 30 -82q32 -32 97 -32q122 0 122 114zM985 362q0 -158 -75 -302q-51 -99 -129 -177l-56 66q67 68 111 154q63 123 63 259q0 134 -63 259q-44 86 -111 154l56 66
q78 -78 129 -177q75 -144 75 -302zM275 -51l-56 -66q-78 78 -129 177q-75 144 -75 302t75 302q51 99 129 177l56 -66q-68 -68 -111 -154q-63 -125 -63 -259q0 -136 63 -259q43 -86 111 -154z" />
    <glyph glyph-name="uni247C" unicode="&#xf6c3;" 
d="M702 344q0 -332 -219 -332q-119 0 -167 125l74 35q33 -77 93 -77q58 0 87 44q32 47 43 161q-60 -54 -124 -54q-88 0 -139 55q-52 53 -52 154q0 97 48 165q54 75 149 75q121 0 171 -110q36 -81 36 -241zM613 401q-6 214 -118 214q-48 0 -77 -43q-29 -44 -29 -117
q0 -126 107 -126q66 0 117 72zM985 362q0 -158 -75 -302q-51 -99 -129 -177l-56 66q67 68 111 154q63 123 63 259q0 134 -63 259q-44 86 -111 154l56 66q78 -78 129 -177q75 -144 75 -302zM275 -51l-56 -66q-78 78 -129 177q-75 144 -75 302t75 302q51 99 129 177l56 -66
q-68 -68 -111 -154q-63 -125 -63 -259q0 -136 63 -259q43 -86 111 -154z" />
    <glyph glyph-name="uni247C" unicode="&#x247c;" 
d="M702 344q0 -332 -219 -332q-119 0 -167 125l74 35q33 -77 93 -77q58 0 87 44q32 47 43 161q-60 -54 -124 -54q-88 0 -139 55q-52 53 -52 154q0 97 48 165q54 75 149 75q121 0 171 -110q36 -81 36 -241zM613 401q-6 214 -118 214q-48 0 -77 -43q-29 -44 -29 -117
q0 -126 107 -126q66 0 117 72zM985 362q0 -158 -75 -302q-51 -99 -129 -177l-56 66q67 68 111 154q63 123 63 259q0 134 -63 259q-44 86 -111 154l56 66q78 -78 129 -177q75 -144 75 -302zM275 -51l-56 -66q-78 78 -129 177q-75 144 -75 302t75 302q51 99 129 177l56 -66
q-68 -68 -111 -154q-63 -125 -63 -259q0 -136 63 -259q43 -86 111 -154z" />
    <glyph glyph-name="uni247D" unicode="&#xf6c4;" 
d="M813 356q0 -170 -41 -254q-44 -90 -137 -90q-97 0 -139 88q-40 81 -40 256q0 172 40 252q42 87 139 87q95 0 137 -87q41 -82 41 -252zM370 19h-87v526h-105v51q31 0 68 22q44 27 60 70h64v-669zM726 356q0 141 -23 202q-21 55 -68 55q-48 0 -69 -55q-23 -57 -23 -202
q0 -262 92 -262q91 0 91 262zM985 362q0 -158 -75 -302q-51 -99 -129 -177l-56 66q67 68 111 154q63 123 63 259q0 134 -63 259q-44 86 -111 154l56 66q78 -78 129 -177q75 -144 75 -302zM275 -51l-56 -66q-78 78 -129 177q-75 144 -75 302t75 302q51 99 129 177l56 -66
q-68 -68 -111 -154q-63 -125 -63 -259q0 -136 63 -259q43 -86 111 -154z" />
    <glyph glyph-name="uni247D" unicode="&#x247d;" 
d="M813 356q0 -170 -41 -254q-44 -90 -137 -90q-97 0 -139 88q-40 81 -40 256q0 172 40 252q42 87 139 87q95 0 137 -87q41 -82 41 -252zM370 19h-87v526h-105v51q31 0 68 22q44 27 60 70h64v-669zM726 356q0 141 -23 202q-21 55 -68 55q-48 0 -69 -55q-23 -57 -23 -202
q0 -262 92 -262q91 0 91 262zM985 362q0 -158 -75 -302q-51 -99 -129 -177l-56 66q67 68 111 154q63 123 63 259q0 134 -63 259q-44 86 -111 154l56 66q78 -78 129 -177q75 -144 75 -302zM275 -51l-56 -66q-78 78 -129 177q-75 144 -75 302t75 302q51 99 129 177l56 -66
q-68 -68 -111 -154q-63 -125 -63 -259q0 -136 63 -259q43 -86 111 -154z" />
    <glyph glyph-name="SF100000" unicode="&#x2500;" 
d="M1000 345h-1000v30h1000v-30z" />
    <glyph glyph-name="SF110000" unicode="&#x2502;" 
d="M515 -140h-30v1000h30v-1000z" />
    <glyph glyph-name="SF010000" unicode="&#x250c;" 
d="M1000 345h-485v-485h-30v515h515v-30z" />
    <glyph glyph-name="SF030000" unicode="&#x2510;" 
d="M515 -140h-30v485h-485v30h515v-515z" />
    <glyph glyph-name="SF020000" unicode="&#x2514;" 
d="M1000 345h-515v515h30v-485h485v-30z" />
    <glyph glyph-name="SF040000" unicode="&#x2518;" 
d="M515 345h-515v30h485v485h30v-515z" />
    <glyph glyph-name="SF080000" unicode="&#x251c;" 
d="M1000 345h-485v-485h-30v1000h30v-485h485v-30z" />
    <glyph glyph-name="SF090000" unicode="&#x2524;" 
d="M515 -140h-30v485h-485v30h485v485h30v-1000z" />
    <glyph glyph-name="SF060000" unicode="&#x252c;" 
d="M1000 345h-485v-485h-30v485h-485v30h1000v-30z" />
    <glyph glyph-name="SF070000" unicode="&#x2534;" 
d="M1000 345h-1000v30h485v485h30v-485h485v-30z" />
    <glyph glyph-name="SF050000" unicode="&#x253c;" 
d="M1000 345h-485v-485h-30v485h-485v30h485v485h30v-485h485v-30z" />
    <glyph glyph-name="CNS1.14091" unicode="&#x2550;" 
d="M1000 387h-1000v30h1000v-30zM1000 303h-1000v30h1000v-30z" />
    <glyph glyph-name="SF240000" unicode="&#x2551;" 
d="M557 -140h-30v1000h30v-1000zM473 -140h-30v1000h30v-1000z" />
    <glyph glyph-name="SF510000" unicode="&#x2552;" 
d="M1000 303h-485v-443h-30v557h515v-30h-485v-54h485v-30z" />
    <glyph glyph-name="SF520000" unicode="&#x2553;" 
d="M1000 345h-443v-485h-30v485h-54v-485h-30v515h557v-30z" />
    <glyph glyph-name="SF390000" unicode="&#x2554;" 
d="M1000 387h-527v-527h-30v557h557v-30zM1000 303h-443v-443h-30v473h473v-30z" />
    <glyph glyph-name="SF220000" unicode="&#x2555;" 
d="M515 -140h-30v443h-485v30h485v54h-485v30h515v-557z" />
    <glyph glyph-name="SF210000" unicode="&#x2556;" 
d="M557 -140h-30v485h-54v-485h-30v485h-443v30h557v-515z" />
    <glyph glyph-name="SF250000" unicode="&#x2557;" 
d="M557 -140h-30v527h-527v30h557v-557zM473 -140h-30v443h-443v30h473v-473z" />
    <glyph glyph-name="SF500000" unicode="&#x2558;" 
d="M1000 303h-515v557h30v-443h485v-30h-485v-54h485v-30z" />
    <glyph glyph-name="SF490000" unicode="&#x2559;" 
d="M1000 345h-557v515h30v-485h54v485h30v-485h443v-30z" />
    <glyph glyph-name="SF380000" unicode="&#x255a;" 
d="M1000 387h-473v473h30v-443h443v-30zM1000 303h-557v557h30v-527h527v-30z" />
    <glyph glyph-name="SF280000" unicode="&#x255b;" 
d="M515 303h-515v30h485v54h-485v30h485v443h30v-557z" />
    <glyph glyph-name="SF270000" unicode="&#x255c;" 
d="M557 345h-557v30h443v485h30v-485h54v485h30v-515z" />
    <glyph glyph-name="SF260000" unicode="&#x255d;" 
d="M473 387h-473v30h443v443h30v-473zM557 303h-557v30h527v527h30v-557z" />
    <glyph glyph-name="CNS1.14075" unicode="&#x255e;" 
d="M1000 303h-485v-443h-30v1000h30v-443h485v-30h-485v-54h485v-30z" />
    <glyph glyph-name="SF370000" unicode="&#x255f;" 
d="M1000 345h-443v-485h-30v1000h30v-485h443v-30zM473 -140h-30v1000h30v-1000z" />
    <glyph glyph-name="SF420000" unicode="&#x2560;" 
d="M1000 387h-473v473h30v-443h443v-30zM1000 303h-443v-443h-30v473h473v-30zM473 -140h-30v1000h30v-1000z" />
    <glyph glyph-name="CNS1.14077" unicode="&#x2561;" 
d="M515 -140h-30v443h-485v30h485v54h-485v30h485v443h30v-1000z" />
    <glyph glyph-name="SF200000" unicode="&#x2562;" 
d="M557 -140h-30v1000h30v-1000zM473 -140h-30v485h-443v30h443v485h30v-1000z" />
    <glyph glyph-name="SF230000" unicode="&#x2563;" 
d="M557 -140h-30v1000h30v-1000zM473 387h-473v30h443v443h30v-473zM473 -140h-30v443h-443v30h473v-473z" />
    <glyph glyph-name="SF470000" unicode="&#x2564;" 
d="M1000 387h-1000v30h1000v-30zM1000 303h-485v-443h-30v443h-485v30h1000v-30z" />
    <glyph glyph-name="SF480000" unicode="&#x2565;" 
d="M1000 345h-443v-485h-30v485h-54v-485h-30v485h-443v30h1000v-30z" />
    <glyph glyph-name="SF410000" unicode="&#x2566;" 
d="M1000 387h-1000v30h1000v-30zM1000 303h-443v-443h-30v473h473v-30zM473 -140h-30v443h-443v30h473v-473z" />
    <glyph glyph-name="SF450000" unicode="&#x2567;" 
d="M1000 387h-1000v30h485v443h30v-443h485v-30zM1000 303h-1000v30h1000v-30z" />
    <glyph glyph-name="SF460000" unicode="&#x2568;" 
d="M1000 345h-1000v30h443v485h30v-485h54v485h30v-485h443v-30z" />
    <glyph glyph-name="SF400000" unicode="&#x2569;" 
d="M1000 387h-473v473h30v-443h443v-30zM473 387h-473v30h443v443h30v-473zM1000 303h-1000v30h1000v-30z" />
    <glyph glyph-name="CNS1.14076" unicode="&#x256a;" 
d="M1000 387h-1000v30h485v443h30v-443h485v-30zM1000 303h-485v-443h-30v443h-485v30h1000v-30z" />
    <glyph glyph-name="SF530000" unicode="&#x256b;" 
d="M1000 345h-443v-485h-30v1000h30v-485h443v-30zM473 -140h-30v485h-443v30h443v485h30v-1000z" />
    <glyph glyph-name="SF440000" unicode="&#x256c;" 
d="M1000 387h-473v473h30v-443h443v-30zM473 387h-473v30h443v443h30v-473zM1000 303h-443v-443h-30v473h473v-30zM473 -140h-30v443h-443v30h473v-473z" />
    <glyph glyph-name="uni256D" unicode="&#x256d;" 
d="M1000 345h-189q-130 0 -213 -83t-83 -215v-187h-30v204q0 130 90 220q91 91 220 91h205v-30z" />
    <glyph glyph-name="uni256E" unicode="&#x256e;" 
d="M515 -140h-30v187q0 130 -83 215q-85 83 -213 83h-189v30h205q129 0 220 -91q90 -90 90 -220v-204z" />
    <glyph glyph-name="uni256F" unicode="&#x256f;" 
d="M515 656q0 -130 -90 -220q-90 -91 -220 -91h-205v30h189q130 0 213 83q83 85 83 215v187h30v-204z" />
    <glyph glyph-name="uni2570" unicode="&#x2570;" 
d="M1000 345h-205q-130 0 -220 91q-90 90 -90 220v204h30v-187q0 -132 83 -215q82 -83 213 -83h189v-30z" />
    <glyph glyph-name="uni2571" unicode="&#x2571;" 
d="M1000 837l-977 -977h-23v20l980 980h20v-23z" />
    <glyph glyph-name="uni2572" unicode="&#x2572;" 
d="M1000 -140h-23l-977 977v23h20l980 -980v-20z" />
    <glyph glyph-name="uni2573" unicode="&#x2573;" 
d="M1000 -140h-23l-477 477l-477 -477h-23v20l479 479l-479 478v23h20l480 -480l480 480h20v-23l-478 -478l478 -479v-20z" />
    <glyph glyph-name="uni2574" unicode="&#x2574;" 
d="M1000 -140h-1000v82h1000v-82z" />
    <glyph glyph-name="uni2581" unicode="&#x2581;" 
d="M1000 -140h-1000v129h1000v-129z" />
    <glyph glyph-name="uni2582" unicode="&#x2582;" 
d="M1000 -140h-1000v254h1000v-254z" />
    <glyph glyph-name="uni2583" unicode="&#x2583;" 
d="M1000 -140h-1000v379h1000v-379z" />
    <glyph glyph-name="dnblock" unicode="&#x2584;" 
d="M1000 -140h-1000v501h1000v-501z" />
    <glyph glyph-name="uni2585" unicode="&#x2585;" 
d="M1000 -140h-1000v626h1000v-626z" />
    <glyph glyph-name="uni2586" unicode="&#x2586;" 
d="M1000 -140h-1000v751h1000v-751z" />
    <glyph glyph-name="uni2587" unicode="&#x2587;" 
d="M1000 -140h-1000v876h1000v-876z" />
    <glyph glyph-name="block" unicode="&#x2588;" 
d="M1000 -140h-1000v1000h1000v-1000z" />
    <glyph glyph-name="uni2589" unicode="&#x2589;" 
d="M867 -140h-867v1000h867v-1000z" />
    <glyph glyph-name="uni258A" unicode="&#x258a;" 
d="M746 -140h-746v1000h746v-1000z" />
    <glyph glyph-name="uni258B" unicode="&#x258b;" 
d="M625 -140h-625v1000h625v-1000z" />
    <glyph glyph-name="lfblock" unicode="&#x258c;" 
d="M500 -140h-500v1000h500v-1000z" />
    <glyph glyph-name="uni258D" unicode="&#x258d;" 
d="M375 -140h-375v1000h375v-1000z" />
    <glyph glyph-name="uni258E" unicode="&#x258e;" 
d="M250 -140h-250v1000h250v-1000z" />
    <glyph glyph-name="uni258F" unicode="&#x258f;" 
d="M125 -140h-125v1000h125v-1000z" />
    <glyph glyph-name="dkshade" unicode="&#xffed;" 
d="M913 -53h-826v826h826v-826z" />
    <glyph glyph-name="dkshade" unicode="&#x2593;" 
d="M913 -53h-826v826h826v-826z" />
    <glyph glyph-name="uni2594" unicode="&#x2594;" 
d="M1000 740h-1000v120h1000v-120z" />
    <glyph glyph-name="uni2595" unicode="&#x2595;" 
d="M1000 -140h-120v1000h120v-1000z" />
    <glyph glyph-name="filledbox" unicode="&#x25a0;" 
d="M874 -12h-748v748h748v-748z" />
    <glyph glyph-name="H22073" unicode="&#x25a1;" 
d="M874 -12h-748v748h748v-748zM797 65v594h-594v-594h594z" />
    <glyph glyph-name="triagup" unicode="&#x25b2;" 
d="M946 -18h-892l446 767z" />
    <glyph glyph-name="uni25B3" unicode="&#x25b3;" 
d="M946 -18h-892l446 767zM816 57l-316 542l-315 -542h631z" />
    <glyph glyph-name="triagdn" unicode="&#x25bc;" 
d="M946 741l-446 -767l-446 767h892z" />
    <glyph glyph-name="uni25BD" unicode="&#x25bd;" 
d="M946 741l-446 -767l-446 767h892zM816 666h-631l315 -542z" />
    <glyph glyph-name="uni25C6" unicode="&#x25c6;" 
d="M957 361l-457 -457l-457 457l457 457z" />
    <glyph glyph-name="uni25C7" unicode="&#x25c7;" 
d="M957 361l-457 -457l-457 457l457 457zM858 361l-358 358l-358 -358l358 -358z" />
    <glyph glyph-name="circle" unicode="&#x25cb;" 
d="M947 360q0 -185 -131 -316q-133 -131 -316 -131q-185 0 -316 131q-131 130 -131 316q0 185 131 316t316 131q183 0 316 -131q131 -133 131 -316zM871 360q0 153 -109 262t-262 109t-262 -109q-109 -108 -109 -262t109 -262q108 -109 262 -109t262 109q109 109 109 262z
" />
    <glyph glyph-name="uni25CE" unicode="&#x25ce;" 
d="M947 360q0 -185 -131 -316q-133 -131 -316 -131q-185 0 -316 131q-131 130 -131 316q0 185 131 316t316 131q183 0 316 -131q131 -133 131 -316zM870 360q0 154 -108 262t-262 108t-262 -108t-108 -262t108 -262t262 -108t262 108t108 262zM800 359q0 -124 -88 -212
t-212 -88q-125 0 -212 88q-88 87 -88 212q0 124 88 212t212 88q122 0 212 -88q88 -90 88 -212zM723 359q0 90 -65 157q-66 66 -158 66t-158 -66q-65 -65 -65 -157q0 -93 65 -157q66 -66 158 -66t158 66q65 65 65 157z" />
    <glyph glyph-name="H18533" unicode="&#x25cf;" 
d="M947 360q0 -185 -131 -316q-133 -131 -316 -131q-185 0 -316 131q-131 130 -131 316q0 185 131 316t316 131q183 0 316 -131q131 -133 131 -316z" />
    <glyph glyph-name="uni25E2" unicode="&#x25e2;" 
d="M1000 -140h-1000l1000 1000v-1000z" />
    <glyph glyph-name="uni25E3" unicode="&#x25e3;" 
d="M1000 -140h-1000v1000z" />
    <glyph glyph-name="uni25E4" unicode="&#x25e4;" 
d="M1000 860l-1000 -1000v1000h1000z" />
    <glyph glyph-name="uni25E5" unicode="&#x25e5;" 
d="M1000 -140l-1000 1000h1000v-1000z" />
    <glyph glyph-name="uni2605" unicode="&#x2605;" 
d="M971 470l-284 -219l117 -354l-304 222l-305 -222l117 354l-283 219h354l116 350l118 -350h354z" />
    <glyph glyph-name="uni2606" unicode="&#x2606;" 
d="M971 470l-284 -219l117 -354l-304 222l-305 -222l117 354l-283 219h354l116 350l118 -350h354zM750 395h-188l-62 186l-62 -186h-188l150 -117l-59 -182l159 117l159 -117l-60 182z" />
    <glyph glyph-name="female" unicode="&#x2640;" 
d="M787 231h-242v-279h-80v279h-252v81h252v63q-69 13 -114 69t-45 128q0 83 58 142q58 58 140 58q80 0 140 -58q59 -61 59 -142q0 -73 -45 -127q-45 -55 -113 -69v-64h242v-81zM622 572q0 47 -34 84q-37 35 -84 35q-49 0 -84 -35q-34 -35 -34 -84q0 -51 34 -85
q34 -35 84 -35q49 0 84 35q34 36 34 85z" />
    <glyph glyph-name="male" unicode="&#x2642;" 
d="M734 466l-39 -39l-155 162v-240q67 -15 112 -69q44 -58 44 -128q0 -82 -58 -142q-58 -58 -139 -58t-139 58t-58 142q0 71 45 128q45 54 113 69v240l-155 -162l-39 39l234 306zM616 152q0 48 -34 85q-37 35 -83 35q-48 0 -83 -35q-34 -35 -34 -85t34 -84q32 -35 83 -35
q49 0 83 35q34 36 34 84z" />
    <glyph glyph-name="uni273D" unicode="&#xf6f6;" 
d="M784 263l-58 -102l-198 149l31 -248h-118l31 248l-198 -149l-58 102l226 97l-226 96l58 102l197 -148l-30 242h118l-30 -242l197 148l58 -102l-226 -96z" />
    <glyph glyph-name="uni273D" unicode="&#x273d;" 
d="M784 263l-58 -102l-198 149l31 -248h-118l31 248l-198 -149l-58 102l226 97l-226 96l58 102l197 -148l-30 242h118l-30 -242l197 148l58 -102l-226 -96z" />
    <glyph glyph-name="uniF820" unicode="&#xf820;" 
 />
    <glyph glyph-name="uniF820" unicode="&#x2e80;" 
 />
    <glyph glyph-name="uniF821" unicode="&#xf821;" 
 />
    <glyph glyph-name="uniF821" unicode="&#x2e84;" 
 />
    <glyph glyph-name="uniF822" unicode="&#xf822;" 
 />
    <glyph glyph-name="uniF822" unicode="&#x2e86;" 
 />
    <glyph glyph-name="uniF823" unicode="&#xf823;" 
 />
    <glyph glyph-name="uniF823" unicode="&#x2e87;" 
 />
    <glyph glyph-name="uniF824" unicode="&#xf824;" 
 />
    <glyph glyph-name="uniF824" unicode="&#x2e88;" 
 />
    <glyph glyph-name="uniF825" unicode="&#xf825;" 
 />
    <glyph glyph-name="uniF825" unicode="&#x2e8a;" 
 />
    <glyph glyph-name="uniF826" unicode="&#xf826;" 
 />
    <glyph glyph-name="uniF826" unicode="&#x2e8c;" 
 />
    <glyph glyph-name="uniF827" unicode="&#xf827;" 
 />
    <glyph glyph-name="uniF827" unicode="&#x2e8d;" 
 />
    <glyph glyph-name="uniF828" unicode="&#xf828;" 
 />
    <glyph glyph-name="uniF828" unicode="&#x2e95;" 
 />
    <glyph glyph-name="uniF829" unicode="&#xf829;" 
 />
    <glyph glyph-name="uniF829" unicode="&#x2e9c;" 
 />
    <glyph glyph-name="uniF82B" unicode="&#xf82b;" 
 />
    <glyph glyph-name="uniF82B" unicode="&#x2ea5;" 
 />
    <glyph glyph-name="uniF82C" unicode="&#xf82c;" 
 />
    <glyph glyph-name="uniF82C" unicode="&#x2ea7;" 
 />
    <glyph glyph-name="uniF82D" unicode="&#xf82d;" 
 />
    <glyph glyph-name="uniF82D" unicode="&#x2eaa;" 
 />
    <glyph glyph-name="uniF82E" unicode="&#xf82e;" 
 />
    <glyph glyph-name="uniF82E" unicode="&#x2eac;" 
 />
    <glyph glyph-name="uniF82F" unicode="&#xf82f;" 
 />
    <glyph glyph-name="uniF82F" unicode="&#x2eae;" 
 />
    <glyph glyph-name="uniF830" unicode="&#xf830;" 
 />
    <glyph glyph-name="uniF830" unicode="&#x2eb6;" 
 />
    <glyph glyph-name="uniF831" unicode="&#xf831;" 
 />
    <glyph glyph-name="uniF831" unicode="&#x2ebc;" 
 />
    <glyph glyph-name="uniF832" unicode="&#xf832;" 
 />
    <glyph glyph-name="uniF832" unicode="&#x2ebe;" 
 />
    <glyph glyph-name="uniF834" unicode="&#xf834;" 
 />
    <glyph glyph-name="uniF834" unicode="&#x2eca;" 
 />
    <glyph glyph-name="uniF835" unicode="&#xf835;" 
 />
    <glyph glyph-name="uniF835" unicode="&#x2ecc;" 
 />
    <glyph glyph-name="uniF836" unicode="&#xf836;" 
 />
    <glyph glyph-name="uniF836" unicode="&#x2ecd;" 
 />
    <glyph glyph-name="uniF837" unicode="&#xf837;" 
 />
    <glyph glyph-name="uniF837" unicode="&#x2ecf;" 
 />
    <glyph glyph-name="uniF838" unicode="&#xf838;" 
 />
    <glyph glyph-name="uniF838" unicode="&#x2ed6;" 
 />
    <glyph glyph-name="uniF839" unicode="&#xf839;" 
 />
    <glyph glyph-name="uniF839" unicode="&#x2ed7;" 
 />
    <glyph glyph-name="uniF83A" unicode="&#xf83a;" 
 />
    <glyph glyph-name="uniF83A" unicode="&#x2ede;" 
 />
    <glyph glyph-name="uni4E00" unicode="&#x4e00;" 
d="M50 439h899v-90h-899v90z" />
    <glyph glyph-name="uni4E00" unicode="&#x2f00;" 
d="M50 439h899v-90h-899v90z" />
    <glyph glyph-name="uni4E28" unicode="&#x4e28;" 
d="M450 825l102 -15q26 -3 26 -18q0 -18 -17 -23l-22 -9v-671v-161q0 -9 -10 -16q-15 -9 -45 -9q-24 0 -26 19l3 167v601q0 88 -11 135z" />
    <glyph glyph-name="uni4E28" unicode="&#x2f01;" 
d="M450 825l102 -15q26 -3 26 -18q0 -18 -17 -23l-22 -9v-671v-161q0 -9 -10 -16q-15 -9 -45 -9q-24 0 -26 19l3 167v601q0 88 -11 135z" />
    <glyph glyph-name="uni4E36" unicode="&#xf6cf;" 
d="M339 587q245 -187 442 -422l-78 -86q-173 254 -430 438z" />
    <glyph glyph-name="uni4E36" unicode="&#x4e36;" 
d="M339 587q245 -187 442 -422l-78 -86q-173 254 -430 438z" />
    <glyph glyph-name="uni4E36" unicode="&#x2f02;" 
d="M339 587q245 -187 442 -422l-78 -86q-173 254 -430 438z" />
    <glyph glyph-name="uni4E3F" unicode="&#xf6d0;" 
d="M761 728l89 -32q9 -3 9 -11q0 -13 -24 -20q-116 -279 -250 -407q-139 -139 -418 -257l-82 78q310 102 438 241q134 128 238 408z" />
    <glyph glyph-name="uni4E3F" unicode="&#x4e3f;" 
d="M761 728l89 -32q9 -3 9 -11q0 -13 -24 -20q-116 -279 -250 -407q-139 -139 -418 -257l-82 78q310 102 438 241q134 128 238 408z" />
    <glyph glyph-name="uni4E3F" unicode="&#x2f03;" 
d="M761 728l89 -32q9 -3 9 -11q0 -13 -24 -20q-116 -279 -250 -407q-139 -139 -418 -257l-82 78q310 102 438 241q134 128 238 408z" />
    <glyph glyph-name="uni4E59" unicode="&#x4e59;" 
d="M136 751h600q12 12 17 12q8 0 23 -12l58 -60q9 -11 9 -18q0 -12 -47 -20q-32 0 -134 -66q-138 -83 -254 -183q-96 -80 -146 -152q-40 -55 -40 -102q0 -60 60 -81t249 -21q179 0 222 23q42 22 98 164l94 -58q-71 -168 -141 -195q-73 -32 -273 -32q-257 0 -330 48
q-84 48 -84 152q0 74 58 150q61 85 174 173q112 92 275 192h-488v86z" />
    <glyph glyph-name="uni4E59" unicode="&#x2f04;" 
d="M136 751h600q12 12 17 12q8 0 23 -12l58 -60q9 -11 9 -18q0 -12 -47 -20q-32 0 -134 -66q-138 -83 -254 -183q-96 -80 -146 -152q-40 -55 -40 -102q0 -60 60 -81t249 -21q179 0 222 23q42 22 98 164l94 -58q-71 -168 -141 -195q-73 -32 -273 -32q-257 0 -330 48
q-84 48 -84 152q0 74 58 150q61 85 174 173q112 92 275 192h-488v86z" />
    <glyph glyph-name="uni4E85" unicode="&#xf6d1;" 
d="M453 818l96 -12q17 -3 17 -12q0 -12 -24 -27v-746q0 -59 -37 -88q-31 -30 -158 -30l-35 90h90q47 0 51 43v782z" />
    <glyph glyph-name="uni4E85" unicode="&#x4e85;" 
d="M453 818l96 -12q17 -3 17 -12q0 -12 -24 -27v-746q0 -59 -37 -88q-31 -30 -158 -30l-35 90h90q47 0 51 43v782z" />
    <glyph glyph-name="uni4E85" unicode="&#x2f05;" 
d="M453 818l96 -12q17 -3 17 -12q0 -12 -24 -27v-746q0 -59 -37 -88q-31 -30 -158 -30l-35 90h90q47 0 51 43v782z" />
    <glyph glyph-name="uni4E8C" unicode="&#x4e8c;" 
d="M144 681h715v-90h-715v90zM54 114h891v-89h-891v89z" />
    <glyph glyph-name="uni4E8C" unicode="&#x2f06;" 
d="M144 681h715v-90h-715v90zM54 114h891v-89h-891v89z" />
    <glyph glyph-name="uni4EA0" unicode="&#xf6d2;" 
d="M464 587l89 -7q25 -2 25 -12q0 -9 -20 -24v-156h387v-90h-891v90h410v199z" />
    <glyph glyph-name="uni4EA0" unicode="&#x4ea0;" 
d="M464 587l89 -7q25 -2 25 -12q0 -9 -20 -24v-156h387v-90h-891v90h410v199z" />
    <glyph glyph-name="uni4EA0" unicode="&#x2f07;" 
d="M464 587l89 -7q25 -2 25 -12q0 -9 -20 -24v-156h387v-90h-891v90h410v199z" />
    <glyph glyph-name="uni4EBA" unicode="&#x4eba;" 
d="M457 806l99 -8q26 0 26 -12q0 -16 -24 -31v-55q0 -114 -15 -207q51 -137 127 -238q102 -135 290 -262l-113 -70q-183 168 -262 293q-41 67 -74 142q-2 -6 -5.5 -15.5t-4.5 -13.5q-45 -125 -167 -242q-87 -87 -206 -160l-82 74q123 70 194 134q113 100 155 197
q69 153 69 368v32q0 22 -7 74z" />
    <glyph glyph-name="uni4EBA" unicode="&#x2f08;" 
d="M457 806l99 -8q26 0 26 -12q0 -16 -24 -31v-55q0 -114 -15 -207q51 -137 127 -238q102 -135 290 -262l-113 -70q-183 168 -262 293q-41 67 -74 142q-2 -6 -5.5 -15.5t-4.5 -13.5q-45 -125 -167 -242q-87 -87 -206 -160l-82 74q123 70 194 134q113 100 155 197
q69 153 69 368v32q0 22 -7 74z" />
    <glyph glyph-name="uni513F" unicode="&#x513f;" 
d="M285 771l90 -8q23 -2 23 -12q0 -15 -20 -27v-262q0 -147 -34 -255q-27 -86 -98 -166q-47 -55 -121 -110l-75 66q69 46 113 90q64 66 89 130q40 105 40 245v242q0 22 -7 67zM566 771l108 -15q21 -3 21 -17q0 -13 -20 -28q-15 -11 -15 -34v-574q0 -47 14 -67q13 -19 60 -19
h39q41 0 64 24q23 22 38 132l89 -39q-24 -129 -57 -169q-31 -34 -72 -34h-140q-64 0 -99 40q-30 39 -30 108v692z" />
    <glyph glyph-name="uni513F" unicode="&#x2f09;" 
d="M285 771l90 -8q23 -2 23 -12q0 -15 -20 -27v-262q0 -147 -34 -255q-27 -86 -98 -166q-47 -55 -121 -110l-75 66q69 46 113 90q64 66 89 130q40 105 40 245v242q0 22 -7 67zM566 771l108 -15q21 -3 21 -17q0 -13 -20 -28q-15 -11 -15 -34v-574q0 -47 14 -67q13 -19 60 -19
h39q41 0 64 24q23 22 38 132l89 -39q-24 -129 -57 -169q-31 -34 -72 -34h-140q-64 0 -99 40q-30 39 -30 108v692z" />
    <glyph glyph-name="uni5165" unicode="&#x5165;" 
d="M464 696h-218v90h351q0 -246 27 -354q25 -99 83 -181q79 -127 250 -262l-98 -74q-182 176 -245 286q-61 95 -86 200q-4 -17 -13 -50q-39 -149 -136 -258q-85 -96 -243 -174l-82 82q156 51 236 134q76 70 116 177q52 126 58 384z" />
    <glyph glyph-name="uni5165" unicode="&#x2f0a;" 
d="M464 696h-218v90h351q0 -246 27 -354q25 -99 83 -181q79 -127 250 -262l-98 -74q-182 176 -245 286q-61 95 -86 200q-4 -17 -13 -50q-39 -149 -136 -258q-85 -96 -243 -174l-82 82q156 51 236 134q76 70 116 177q52 126 58 384z" />
    <glyph glyph-name="uni516B" unicode="&#x516b;" 
d="M312 630l93 -11q11 -2 16 -5t4 -7q0 -10 -19 -24q-12 -196 -42 -308q-32 -115 -94 -209q-59 -85 -145 -159l-83 59q85 62 135 130q63 79 93 179q39 126 42 355zM367 775h328q0 -252 20 -355q19 -100 63 -181q59 -125 190 -261l-93 -71q-137 171 -187 285q-53 108 -70 224
q-14 87 -16 277h-235v82z" />
    <glyph glyph-name="uni516B" unicode="&#x2f0b;" 
d="M312 630l93 -11q11 -2 16 -5t4 -7q0 -10 -19 -24q-12 -196 -42 -308q-32 -115 -94 -209q-59 -85 -145 -159l-83 59q85 62 135 130q63 79 93 179q39 126 42 355zM367 775h328q0 -252 20 -355q19 -100 63 -181q59 -125 190 -261l-93 -71q-137 171 -187 285q-53 108 -70 224
q-14 87 -16 277h-235v82z" />
    <glyph glyph-name="uni5182" unicode="&#xf6d3;" 
d="M203 704h652v-683q0 -66 -70 -86q-59 -16 -110 -16l-35 90l88 2q37 2 37 37v578h-515v-715h-90v793h43z" />
    <glyph glyph-name="uni5182" unicode="&#x5182;" 
d="M203 704h652v-683q0 -66 -70 -86q-59 -16 -110 -16l-35 90l88 2q37 2 37 37v578h-515v-715h-90v793h43z" />
    <glyph glyph-name="uni5182" unicode="&#x2f0c;" 
d="M203 704h652v-683q0 -66 -70 -86q-59 -16 -110 -16l-35 90l88 2q37 2 37 37v578h-515v-715h-90v793h43z" />
    <glyph glyph-name="uni5196" unicode="&#xf6d4;" 
d="M82 525h839v-270h-93v188h-653v-188h-93v270z" />
    <glyph glyph-name="uni5196" unicode="&#x5196;" 
d="M82 525h839v-270h-93v188h-653v-188h-93v270z" />
    <glyph glyph-name="uni5196" unicode="&#x2f0d;" 
d="M82 525h839v-270h-93v188h-653v-188h-93v270z" />
    <glyph glyph-name="uni51AB" unicode="&#xf6d5;" 
d="M359 716q106 -78 176 -160l-63 -67q-84 92 -180 164zM773 427v-102l-500 -308q-18 -35 -31 -35q-12 0 -18 19l-41 106q292 123 590 320z" />
    <glyph glyph-name="uni51AB" unicode="&#x51ab;" 
d="M359 716q106 -78 176 -160l-63 -67q-84 92 -180 164zM773 427v-102l-500 -308q-18 -35 -31 -35q-12 0 -18 19l-41 106q292 123 590 320z" />
    <glyph glyph-name="uni51AB" unicode="&#x2f0e;" 
d="M359 716q106 -78 176 -160l-63 -67q-84 92 -180 164zM773 427v-102l-500 -308q-18 -35 -31 -35q-12 0 -18 19l-41 106q292 123 590 320z" />
    <glyph glyph-name="uni51E0" unicode="&#x51e0;" 
d="M285 685v82h398v-703q0 -39 66 -39h75q19 0 33 13q13 16 33 131l86 -31q-24 -135 -51 -170q-30 -33 -86 -33h-98q-148 0 -148 109v641h-218v-270q0 -146 -23 -232q-20 -83 -70 -141q-60 -75 -181 -115l-66 86q103 20 159 76q45 39 66 111q25 77 25 215v270z" />
    <glyph glyph-name="uni51E0" unicode="&#x2f0f;" 
d="M285 685v82h398v-703q0 -39 66 -39h75q19 0 33 13q13 16 33 131l86 -31q-24 -135 -51 -170q-30 -33 -86 -33h-98q-148 0 -148 109v641h-218v-270q0 -146 -23 -232q-20 -83 -70 -141q-60 -75 -181 -115l-66 86q103 20 159 76q45 39 66 111q25 77 25 215v270z" />
    <glyph glyph-name="uni51F5" unicode="&#x51f5;" 
d="M125 728l91 -7q26 -3 26 -13q0 -9 -20 -27v-551h555v594l91 -7q26 -3 26 -13q0 -8 -19 -27v-719h-98v82h-555v-90h-97v778z" />
    <glyph glyph-name="uni51F5" unicode="&#x2f10;" 
d="M125 728l91 -7q26 -3 26 -13q0 -9 -20 -27v-551h555v594l91 -7q26 -3 26 -13q0 -8 -19 -27v-719h-98v82h-555v-90h-97v778z" />
    <glyph glyph-name="uni5200" unicode="&#x5200;" 
d="M101 747h816q0 -481 -30 -605q-18 -121 -80 -167q-66 -48 -222 -48l-46 98q175 0 207 28q30 22 48 107q27 93 30 501h-326q-12 -211 -52 -346q-47 -142 -112 -233q-62 -87 -178 -163l-90 70q123 65 182 146q67 84 106 206q38 119 50 320h-303v86z" />
    <glyph glyph-name="uni5200" unicode="&#x2f11;" 
d="M101 747h816q0 -481 -30 -605q-18 -121 -80 -167q-66 -48 -222 -48l-46 98q175 0 207 28q30 22 48 107q27 93 30 501h-326q-12 -211 -52 -346q-47 -142 -112 -233q-62 -87 -178 -163l-90 70q123 65 182 146q67 84 106 206q38 119 50 320h-303v86z" />
    <glyph glyph-name="uni529B" unicode="&#x529b;" 
d="M105 603h305q4 116 4 199l96 -10q21 -3 21 -10q0 -9 -24 -27q0 -83 -3 -152h406q0 -396 -26 -502q-15 -99 -67 -138q-55 -40 -185 -40l-47 98q143 0 167 23q25 18 40 86q21 72 24 383h-317q-9 -111 -28 -184q-36 -128 -108 -223q-81 -106 -211 -191l-86 74
q134 68 223 178q70 91 100 229q11 54 16 117h-300v90z" />
    <glyph glyph-name="uni529B" unicode="&#x2f12;" 
d="M105 603h305q4 116 4 199l96 -10q21 -3 21 -10q0 -9 -24 -27q0 -83 -3 -152h406q0 -396 -26 -502q-15 -99 -67 -138q-55 -40 -185 -40l-47 98q143 0 167 23q25 18 40 86q21 72 24 383h-317q-9 -111 -28 -184q-36 -128 -108 -223q-81 -106 -211 -191l-86 74
q134 68 223 178q70 91 100 229q11 54 16 117h-300v90z" />
    <glyph glyph-name="uni52F9" unicode="&#xf6d6;" 
d="M273 806l95 -31q14 -6 14 -16q0 -7 -31 -16q-16 -56 -31 -93h570q0 -429 -23 -542q-15 -109 -61 -149q-52 -44 -170 -44l-47 94q129 0 153 25q23 19 37 95q18 81 21 439h-514q-8 -15 -22 -43q-47 -86 -108 -157l-90 59q78 83 121 163q46 81 86 216z" />
    <glyph glyph-name="uni52F9" unicode="&#x52f9;" 
d="M273 806l95 -31q14 -6 14 -16q0 -7 -31 -16q-16 -56 -31 -93h570q0 -429 -23 -542q-15 -109 -61 -149q-52 -44 -170 -44l-47 94q129 0 153 25q23 19 37 95q18 81 21 439h-514q-8 -15 -22 -43q-47 -86 -108 -157l-90 59q78 83 121 163q46 81 86 216z" />
    <glyph glyph-name="uni52F9" unicode="&#x2f13;" 
d="M273 806l95 -31q14 -6 14 -16q0 -7 -31 -16q-16 -56 -31 -93h570q0 -429 -23 -542q-15 -109 -61 -149q-52 -44 -170 -44l-47 94q129 0 153 25q23 19 37 95q18 81 21 439h-514q-8 -15 -22 -43q-47 -86 -108 -157l-90 59q78 83 121 163q46 81 86 216z" />
    <glyph glyph-name="uni5315" unicode="&#x5315;" 
d="M179 798l109 -15q20 -3 20 -16t-19 -29q-16 -10 -16 -34v-266q123 32 202 62q126 46 298 150l70 -74q7 -7 10 -15q-5 -9 -10 -9l-23 4q-13 0 -40 -12q-252 -139 -507 -203v-227q0 -44 14 -64q13 -18 60 -18h309q70 0 106 30q38 27 62 162l90 -39q-36 -157 -87 -201
q-46 -41 -109 -41h-410q-64 0 -99 40q-30 37 -30 108v707z" />
    <glyph glyph-name="uni5315" unicode="&#x2f14;" 
d="M179 798l109 -15q20 -3 20 -16t-19 -29q-16 -10 -16 -34v-266q123 32 202 62q126 46 298 150l70 -74q7 -7 10 -15q-5 -9 -10 -9l-23 4q-13 0 -40 -12q-252 -139 -507 -203v-227q0 -44 14 -64q13 -18 60 -18h309q70 0 106 30q38 27 62 162l90 -39q-36 -157 -87 -201
q-46 -41 -109 -41h-410q-64 0 -99 40q-30 37 -30 108v707z" />
    <glyph glyph-name="uni531A" unicode="&#x531a;" 
d="M894 790v-90h-687v-664h699v-90h-699v-35h-94v879h781z" />
    <glyph glyph-name="uni531A" unicode="&#x2f15;" 
d="M894 790v-90h-687v-664h699v-90h-699v-35h-94v879h781z" />
    <glyph glyph-name="uni5338" unicode="&#xf6d7;" 
d="M941 724v-82h-711v-512q0 -39 58 -39h622l-16 -90h-625q-133 0 -133 117v606h805z" />
    <glyph glyph-name="uni5338" unicode="&#x5338;" 
d="M941 724v-82h-711v-512q0 -39 58 -39h622l-16 -90h-625q-133 0 -133 117v606h805z" />
    <glyph glyph-name="uni5338" unicode="&#x2f16;" 
d="M941 724v-82h-711v-512q0 -39 58 -39h622l-16 -90h-625q-133 0 -133 117v606h805z" />
    <glyph glyph-name="uni5341" unicode="&#x5341;" 
d="M66 474h398v328l92 -7q26 -2 26 -13q0 -9 -20 -27v-281h371v-90h-371v-473h-98v473h-398v90z" />
    <glyph glyph-name="uni5341" unicode="&#x2f17;" 
d="M66 474h398v328l92 -7q26 -2 26 -13q0 -9 -20 -27v-281h371v-90h-371v-473h-98v473h-398v90z" />
    <glyph glyph-name="uni535C" unicode="&#x535c;" 
d="M410 818l82 -7q23 -3 23 -13q0 -8 -15 -23v-233q139 -86 273 -209l-70 -62q-104 100 -203 170v-530h-90v907z" />
    <glyph glyph-name="uni535C" unicode="&#x2f18;" 
d="M410 818l82 -7q23 -3 23 -13q0 -8 -15 -23v-233q139 -86 273 -209l-70 -62q-104 100 -203 170v-530h-90v907z" />
    <glyph glyph-name="uni5369" unicode="&#xf6d8;" 
d="M355 763h371v-617q0 -68 -84 -86q-64 -16 -131 -16l-35 90l112 2q48 2 48 37v508h-234v-770h-90v852h43z" />
    <glyph glyph-name="uni5369" unicode="&#x5369;" 
d="M355 763h371v-617q0 -68 -84 -86q-64 -16 -131 -16l-35 90l112 2q48 2 48 37v508h-234v-770h-90v852h43z" />
    <glyph glyph-name="uni5369" unicode="&#x2f19;" 
d="M355 763h371v-617q0 -68 -84 -86q-64 -16 -131 -16l-35 90l112 2q48 2 48 37v508h-234v-770h-90v852h43z" />
    <glyph glyph-name="uni5382" unicode="&#x5382;" 
d="M222 673v-293q0 -139 -25 -258q-16 -84 -69 -215l-97 47q50 110 68 192q26 121 26 234v379h796v-86h-699z" />
    <glyph glyph-name="uni5382" unicode="&#x2f1a;" 
d="M222 673v-293q0 -139 -25 -258q-16 -84 -69 -215l-97 47q50 110 68 192q26 121 26 234v379h796v-86h-699z" />
    <glyph glyph-name="uni53B6" unicode="&#xf6d9;" 
d="M406 759l96 -38q21 -6 21 -17q0 -8 -23 -23q-74 -261 -193 -568q230 22 431 52q-48 73 -90 125l70 67q109 -136 207 -325l-74 -66q-45 85 -67 124q-214 -38 -636 -93q-13 -19 -23 -19q-11 0 -13 16l-23 101q57 3 114 9q59 147 96 265q66 203 107 390z" />
    <glyph glyph-name="uni53B6" unicode="&#x53b6;" 
d="M406 759l96 -38q21 -6 21 -17q0 -8 -23 -23q-74 -261 -193 -568q230 22 431 52q-48 73 -90 125l70 67q109 -136 207 -325l-74 -66q-45 85 -67 124q-214 -38 -636 -93q-13 -19 -23 -19q-11 0 -13 16l-23 101q57 3 114 9q59 147 96 265q66 203 107 390z" />
    <glyph glyph-name="uni53B6" unicode="&#x2f1b;" 
d="M406 759l96 -38q21 -6 21 -17q0 -8 -23 -23q-74 -261 -193 -568q230 22 431 52q-48 73 -90 125l70 67q109 -136 207 -325l-74 -66q-45 85 -67 124q-214 -38 -636 -93q-13 -19 -23 -19q-11 0 -13 16l-23 101q57 3 114 9q59 147 96 265q66 203 107 390z" />
    <glyph glyph-name="uni53C8" unicode="&#x53c8;" 
d="M156 751h588q22 16 25 16q9 0 22 -11l54 -48q10 -10 10 -19q0 -13 -31 -32q-106 -324 -236 -466l-9 -9q36 -29 83 -55q105 -69 279 -114l-66 -94q-167 60 -279 135q-46 30 -84 63q-146 -122 -387 -202l-71 90q162 40 257 88q76 40 134 87q-40 40 -70 82q-85 112 -149 294
l78 39q69 -189 144 -282q34 -44 62 -71q23 26 43 55q85 114 161 368h-558v86z" />
    <glyph glyph-name="uni53C8" unicode="&#x2f1c;" 
d="M156 751h588q22 16 25 16q9 0 22 -11l54 -48q10 -10 10 -19q0 -13 -31 -32q-106 -324 -236 -466l-9 -9q36 -29 83 -55q105 -69 279 -114l-66 -94q-167 60 -279 135q-46 30 -84 63q-146 -122 -387 -202l-71 90q162 40 257 88q76 40 134 87q-40 40 -70 82q-85 112 -149 294
l78 39q69 -189 144 -282q34 -44 62 -71q23 26 43 55q85 114 161 368h-558v86z" />
    <glyph glyph-name="uni53E3" unicode="&#x53e3;" 
d="M132 689h735v-735h-94v86h-547v-86h-94v735zM226 126h547v477h-547v-477z" />
    <glyph glyph-name="uni53E3" unicode="&#x2f1d;" 
d="M132 689h735v-735h-94v86h-547v-86h-94v735zM226 126h547v477h-547v-477z" />
    <glyph glyph-name="uni56D7" unicode="&#x56d7;" 
d="M85 771h813v-844h-94v51h-625v-51h-94v844zM179 64h625v621h-625v-621z" />
    <glyph glyph-name="uni56D7" unicode="&#x2f1e;" 
d="M85 771h813v-844h-94v51h-625v-51h-94v844zM179 64h625v621h-625v-621z" />
    <glyph glyph-name="uni571F" unicode="&#x571f;" 
d="M117 521h343v293l89 -7q25 -3 25 -13q0 -8 -20 -23v-250h324v-86h-324v-375h391v-86h-891v86h406v375h-343v86z" />
    <glyph glyph-name="uni571F" unicode="&#x2f1f;" 
d="M117 521h343v293l89 -7q25 -3 25 -13q0 -8 -20 -23v-250h324v-86h-324v-375h391v-86h-891v86h406v375h-343v86z" />
    <glyph glyph-name="uni58EB" unicode="&#x58eb;" 
d="M46 513h414v297l89 -7q25 -3 25 -13q0 -8 -20 -23v-254h399v-86h-399v-363h340v-86h-789v86h355v363h-414v86z" />
    <glyph glyph-name="uni58EB" unicode="&#x2f20;" 
d="M46 513h414v297l89 -7q25 -3 25 -13q0 -8 -20 -23v-254h399v-86h-399v-363h340v-86h-789v86h355v363h-414v86z" />
    <glyph glyph-name="uni5902" unicode="&#xf6da;" 
d="M359 818l92 -32q13 -6 13 -15q0 -6 -31 -12q-18 -76 -23 -94h303q22 16 25 16q9 0 22 -10l54 -49q10 -10 10 -19q0 -14 -32 -32q-95 -273 -211 -398q31 -22 61 -36q116 -74 315 -124l-67 -98q-187 66 -314 146q-36 23 -64 46q-141 -116 -387 -192l-71 90q149 32 245 77
q82 39 140 86q-65 57 -111 120q-25 33 -40 57q-35 -70 -78 -133l-85 55q65 88 107 174q-38 73 -72 166l78 39q26 -67 41 -99q43 110 80 271zM332 440q34 -61 68 -100q49 -63 105 -110q16 20 24 31q83 103 152 318h-297q-24 -75 -51 -138z" />
    <glyph glyph-name="uni5902" unicode="&#x590a;" 
d="M359 818l92 -32q13 -6 13 -15q0 -6 -31 -12q-18 -76 -23 -94h303q22 16 25 16q9 0 22 -10l54 -49q10 -10 10 -19q0 -14 -32 -32q-95 -273 -211 -398q31 -22 61 -36q116 -74 315 -124l-67 -98q-187 66 -314 146q-36 23 -64 46q-141 -116 -387 -192l-71 90q149 32 245 77
q82 39 140 86q-65 57 -111 120q-25 33 -40 57q-35 -70 -78 -133l-85 55q65 88 107 174q-38 73 -72 166l78 39q26 -67 41 -99q43 110 80 271zM332 440q34 -61 68 -100q49 -63 105 -110q16 20 24 31q83 103 152 318h-297q-24 -75 -51 -138z" />
    <glyph glyph-name="uni5902" unicode="&#x5902;" 
d="M359 818l92 -32q13 -6 13 -15q0 -6 -31 -12q-18 -76 -23 -94h303q22 16 25 16q9 0 22 -10l54 -49q10 -10 10 -19q0 -14 -32 -32q-95 -273 -211 -398q31 -22 61 -36q116 -74 315 -124l-67 -98q-187 66 -314 146q-36 23 -64 46q-141 -116 -387 -192l-71 90q149 32 245 77
q82 39 140 86q-65 57 -111 120q-25 33 -40 57q-35 -70 -78 -133l-85 55q65 88 107 174q-38 73 -72 166l78 39q26 -67 41 -99q43 110 80 271zM332 440q34 -61 68 -100q49 -63 105 -110q16 20 24 31q83 103 152 318h-297q-24 -75 -51 -138z" />
    <glyph glyph-name="uni5902" unicode="&#x2f22;" 
d="M359 818l92 -32q13 -6 13 -15q0 -6 -31 -12q-18 -76 -23 -94h303q22 16 25 16q9 0 22 -10l54 -49q10 -10 10 -19q0 -14 -32 -32q-95 -273 -211 -398q31 -22 61 -36q116 -74 315 -124l-67 -98q-187 66 -314 146q-36 23 -64 46q-141 -116 -387 -192l-71 90q149 32 245 77
q82 39 140 86q-65 57 -111 120q-25 33 -40 57q-35 -70 -78 -133l-85 55q65 88 107 174q-38 73 -72 166l78 39q26 -67 41 -99q43 110 80 271zM332 440q34 -61 68 -100q49 -63 105 -110q16 20 24 31q83 103 152 318h-297q-24 -75 -51 -138z" />
    <glyph glyph-name="uni5902" unicode="&#x2f21;" 
d="M359 818l92 -32q13 -6 13 -15q0 -6 -31 -12q-18 -76 -23 -94h303q22 16 25 16q9 0 22 -10l54 -49q10 -10 10 -19q0 -14 -32 -32q-95 -273 -211 -398q31 -22 61 -36q116 -74 315 -124l-67 -98q-187 66 -314 146q-36 23 -64 46q-141 -116 -387 -192l-71 90q149 32 245 77
q82 39 140 86q-65 57 -111 120q-25 33 -40 57q-35 -70 -78 -133l-85 55q65 88 107 174q-38 73 -72 166l78 39q26 -67 41 -99q43 110 80 271zM332 440q34 -61 68 -100q49 -63 105 -110q16 20 24 31q83 103 152 318h-297q-24 -75 -51 -138z" />
    <glyph glyph-name="uni5915" unicode="&#x5915;" 
d="M417 818l92 -32q14 -6 14 -15q0 -6 -31 -12q-16 -38 -28 -63h296q22 16 25 16q9 0 22 -10l54 -49q10 -10 10 -19q0 -13 -32 -31q-106 -301 -240 -437q-157 -163 -474 -259l-71 90q166 37 263 82q116 54 192 128q-89 94 -197 165l74 59q98 -59 193 -142q79 110 149 321
h-309q-32 -55 -62 -94q-77 -100 -166 -175l-86 55q116 90 182 181q70 88 130 241z" />
    <glyph glyph-name="uni5915" unicode="&#x2f23;" 
d="M417 818l92 -32q14 -6 14 -15q0 -6 -31 -12q-16 -38 -28 -63h296q22 16 25 16q9 0 22 -10l54 -49q10 -10 10 -19q0 -13 -32 -31q-106 -301 -240 -437q-157 -163 -474 -259l-71 90q166 37 263 82q116 54 192 128q-89 94 -197 165l74 59q98 -59 193 -142q79 110 149 321
h-309q-32 -55 -62 -94q-77 -100 -166 -175l-86 55q116 90 182 181q70 88 130 241z" />
    <glyph glyph-name="uni5927" unicode="&#x5927;" 
d="M74 552h385q0 4 0.5 11.5t0.5 11.5v164q0 23 -7 75l99 -8q26 -2 26 -12q0 -16 -24 -31v-188q0 -4 -0.5 -12t-0.5 -11h376v-86h-374q54 -172 147 -273q85 -108 262 -184l-82 -94q-153 81 -254 218q-62 83 -106 196q-12 -40 -25 -71q-47 -107 -168 -206q-86 -73 -208 -137
l-82 74q128 62 195 113q112 80 157 165q47 88 62 199h-379v86z" />
    <glyph glyph-name="uni5927" unicode="&#x2f24;" 
d="M74 552h385q0 4 0.5 11.5t0.5 11.5v164q0 23 -7 75l99 -8q26 -2 26 -12q0 -16 -24 -31v-188q0 -4 -0.5 -12t-0.5 -11h376v-86h-374q54 -172 147 -273q85 -108 262 -184l-82 -94q-153 81 -254 218q-62 83 -106 196q-12 -40 -25 -71q-47 -107 -168 -206q-86 -73 -208 -137
l-82 74q128 62 195 113q112 80 157 165q47 88 62 199h-379v86z" />
    <glyph glyph-name="uni5973" unicode="&#x5973;" 
d="M437 825l90 -25q23 -8 23 -14t-8 -11l-19 -16q-26 -55 -77 -191h503v-86h-181q-64 -203 -131 -305l-3 -3l-1 -2q8 -4 24.5 -12.5t24.5 -12.5q129 -71 247 -162l-74 -74q-146 115 -262 178q-12 6 -17 9q-66 -74 -145 -110q-86 -46 -291 -73q-24 49 -55 86q203 17 290 60
q66 28 116 77q-88 38 -196 69q-4 -9 -13 -27t-13 -27l-98 20q80 154 142 309h-263v86h298q53 139 89 257zM670 482h-257q-41 -106 -82 -197q117 -33 219 -75q67 103 120 272z" />
    <glyph glyph-name="uni5973" unicode="&#x2f25;" 
d="M437 825l90 -25q23 -8 23 -14t-8 -11l-19 -16q-26 -55 -77 -191h503v-86h-181q-64 -203 -131 -305l-3 -3l-1 -2q8 -4 24.5 -12.5t24.5 -12.5q129 -71 247 -162l-74 -74q-146 115 -262 178q-12 6 -17 9q-66 -74 -145 -110q-86 -46 -291 -73q-24 49 -55 86q203 17 290 60
q66 28 116 77q-88 38 -196 69q-4 -9 -13 -27t-13 -27l-98 20q80 154 142 309h-263v86h298q53 139 89 257zM670 482h-257q-41 -106 -82 -197q117 -33 219 -75q67 103 120 272z" />
    <glyph glyph-name="uni5B50" unicode="&#x5b50;" 
d="M789 778q11 0 24 -8l52 -33q10 -7 10 -13q0 -14 -24 -28l-281 -269v-39h379v-86h-379v-266q0 -63 -49 -94q-43 -31 -205 -31l-39 94h127q66 0 72 51v246h-426v86h426v121l57 -6l169 182h-577v86h640z" />
    <glyph glyph-name="uni5B50" unicode="&#x2f26;" 
d="M789 778q11 0 24 -8l52 -33q10 -7 10 -13q0 -14 -24 -28l-281 -269v-39h379v-86h-379v-266q0 -63 -49 -94q-43 -31 -205 -31l-39 94h127q66 0 72 51v246h-426v86h426v121l57 -6l169 182h-577v86h640z" />
    <glyph glyph-name="uni5B80" unicode="&#xf6db;" 
d="M453 618l88 -7q25 -2 25 -12q0 -9 -20 -24v-97h383v-246h-94v160h-683v-160h-94v246h395v140z" />
    <glyph glyph-name="uni5B80" unicode="&#x5b80;" 
d="M453 618l88 -7q25 -2 25 -12q0 -9 -20 -24v-97h383v-246h-94v160h-683v-160h-94v246h395v140z" />
    <glyph glyph-name="uni5B80" unicode="&#x2f27;" 
d="M453 618l88 -7q25 -2 25 -12q0 -9 -20 -24v-97h383v-246h-94v160h-683v-160h-94v246h395v140z" />
    <glyph glyph-name="uni5BF8" unicode="&#x5bf8;" 
d="M66 618h570v196l100 -12q17 -3 17 -12q0 -12 -23 -27v-145h215v-86h-215v-492q0 -63 -46 -94q-40 -31 -192 -31l-39 94h117q62 0 66 51v472h-570v86zM253 423q100 -93 196 -223l-71 -62q-96 141 -187 226z" />
    <glyph glyph-name="uni5BF8" unicode="&#x2f28;" 
d="M66 618h570v196l100 -12q17 -3 17 -12q0 -12 -23 -27v-145h215v-86h-215v-492q0 -63 -46 -94q-40 -31 -192 -31l-39 94h117q62 0 66 51v472h-570v86zM253 423q100 -93 196 -223l-71 -62q-96 141 -187 226z" />
    <glyph glyph-name="uni5C0F" unicode="&#x5c0f;" 
d="M464 810l100 -12q18 -2 18 -12q0 -12 -24 -27v-723q0 -63 -40 -94q-34 -31 -167 -31l-39 94h97q51 0 55 51v754zM222 599l90 -40q12 -6 12 -11q0 -10 -16 -20q-80 -225 -168 -375l-98 47q112 165 180 399zM777 599q24 -113 63 -201q38 -93 117 -198l-102 -47
q-59 98 -97 195q-43 104 -67 231z" />
    <glyph glyph-name="uni5C0F" unicode="&#x2f29;" 
d="M464 810l100 -12q18 -2 18 -12q0 -12 -24 -27v-723q0 -63 -40 -94q-34 -31 -167 -31l-39 94h97q51 0 55 51v754zM222 599l90 -40q12 -6 12 -11q0 -10 -16 -20q-80 -225 -168 -375l-98 47q112 165 180 399zM777 599q24 -113 63 -201q38 -93 117 -198l-102 -47
q-59 98 -97 195q-43 104 -67 231z" />
    <glyph glyph-name="uni5C22" unicode="&#x5c22;" 
d="M58 583h363q0 65 -4 227l100 -6q18 -3 18 -10q0 -15 -16 -31l-8 -180h434v-86h-436q-6 -138 -30 -228q-29 -110 -82 -180q-90 -120 -292 -178l-63 86q167 33 245 105q72 63 102 177q24 84 30 218h-361v86zM531 454l108 -14q21 -3 21 -17q0 -13 -20 -28q-15 -12 -15 -35
v-269q0 -46 14 -67q13 -19 60 -19h86q31 0 49 22q17 20 29 123l90 -40q-19 -122 -47 -159q-24 -32 -59 -32h-187q-64 0 -99 40q-30 39 -30 109v386z" />
    <glyph glyph-name="uni5C22" unicode="&#x2f2a;" 
d="M58 583h363q0 65 -4 227l100 -6q18 -3 18 -10q0 -15 -16 -31l-8 -180h434v-86h-436q-6 -138 -30 -228q-29 -110 -82 -180q-90 -120 -292 -178l-63 86q167 33 245 105q72 63 102 177q24 84 30 218h-361v86zM531 454l108 -14q21 -3 21 -17q0 -13 -20 -28q-15 -12 -15 -35
v-269q0 -46 14 -67q13 -19 60 -19h86q31 0 49 22q17 20 29 123l90 -40q-19 -122 -47 -159q-24 -32 -59 -32h-187q-64 0 -99 40q-30 39 -30 109v386z" />
    <glyph glyph-name="uni5C38" unicode="&#x5c38;" 
d="M285 681v-235h496v235h-496zM283 364q-6 -122 -39 -223q-31 -97 -116 -238l-93 47q82 117 113 215q43 135 43 262v336h684v-434h-94v35h-498z" />
    <glyph glyph-name="uni5C38" unicode="&#x2f2b;" 
d="M285 681v-235h496v235h-496zM283 364q-6 -122 -39 -223q-31 -97 -116 -238l-93 47q82 117 113 215q43 135 43 262v336h684v-434h-94v35h-498z" />
    <glyph glyph-name="uni5C6E" unicode="&#x5c6e;" 
d="M121 638l88 -7q25 -2 25 -13q0 -8 -20 -23v-231h235v446l88 -7q25 -3 25 -13q0 -8 -20 -23v-403h231v274l88 -7q25 -2 25 -13q0 -7 -19 -23v-430h-94v113h-231v-351h-93v351h-235v-121h-93v481z" />
    <glyph glyph-name="uni5C6E" unicode="&#x2f2c;" 
d="M121 638l88 -7q25 -2 25 -13q0 -8 -20 -23v-231h235v446l88 -7q25 -3 25 -13q0 -8 -20 -23v-403h231v274l88 -7q25 -2 25 -13q0 -7 -19 -23v-430h-94v113h-231v-351h-93v351h-235v-121h-93v481z" />
    <glyph glyph-name="uni5C71" unicode="&#x5c71;" 
d="M460 806l92 -7q26 -2 26 -13q0 -9 -20 -27v-649h254v500l88 -6q25 -3 25 -13q0 -7 -19 -23v-649h-94v102h-633v-102h-94v691l89 -6q25 -3 25 -13q0 -8 -20 -23v-458h281v696z" />
    <glyph glyph-name="uni5C71" unicode="&#x2f2d;" 
d="M460 806l92 -7q26 -2 26 -13q0 -9 -20 -27v-649h254v500l88 -6q25 -3 25 -13q0 -7 -19 -23v-649h-94v102h-633v-102h-94v691l89 -6q25 -3 25 -13q0 -8 -20 -23v-458h281v696z" />
    <glyph glyph-name="uni5DDB" unicode="&#xf6dc;" 
d="M261 755l90 -35q12 -4 12 -16q0 -16 -31 -19q-39 -123 -111 -321q110 -199 169 -402l-82 -19q-63 237 -183 417q86 200 136 395zM523 755l89 -35q13 -5 13 -16q0 -16 -32 -19q-54 -147 -128 -322q102 -181 163 -381l-82 -20q-63 229 -179 398q100 202 156 395zM785 755
l89 -35q12 -4 12 -16q0 -16 -31 -19q-42 -115 -133 -322q103 -182 160 -374l-82 -19q-59 220 -175 390q102 200 160 395z" />
    <glyph glyph-name="uni5DDB" unicode="&#x5ddb;" 
d="M261 755l90 -35q12 -4 12 -16q0 -16 -31 -19q-39 -123 -111 -321q110 -199 169 -402l-82 -19q-63 237 -183 417q86 200 136 395zM523 755l89 -35q13 -5 13 -16q0 -16 -32 -19q-54 -147 -128 -322q102 -181 163 -381l-82 -20q-63 229 -179 398q100 202 156 395zM785 755
l89 -35q12 -4 12 -16q0 -16 -31 -19q-42 -115 -133 -322q103 -182 160 -374l-82 -19q-59 220 -175 390q102 200 160 395z" />
    <glyph glyph-name="uni5DDB" unicode="&#x2f2e;" 
d="M261 755l90 -35q12 -4 12 -16q0 -16 -31 -19q-39 -123 -111 -321q110 -199 169 -402l-82 -19q-63 237 -183 417q86 200 136 395zM523 755l89 -35q13 -5 13 -16q0 -16 -32 -19q-54 -147 -128 -322q102 -181 163 -381l-82 -20q-63 229 -179 398q100 202 156 395zM785 755
l89 -35q12 -4 12 -16q0 -16 -31 -19q-42 -115 -133 -322q103 -182 160 -374l-82 -19q-59 220 -175 390q102 200 160 395z" />
    <glyph glyph-name="uni5DE5" unicode="&#x5de5;" 
d="M128 712h739v-90h-317v-531h375v-90h-851v90h379v531h-325v90z" />
    <glyph glyph-name="uni5DE5" unicode="&#x2f2f;" 
d="M128 712h739v-90h-317v-531h375v-90h-851v90h379v531h-325v90z" />
    <glyph glyph-name="uni5DF1" unicode="&#x5df1;" 
d="M140 759h672v-371h-582v-324q0 -39 31 -39h481q44 0 66 23q21 19 39 137l94 -28q-20 -136 -61 -174q-44 -44 -111 -44h-527q-106 0 -106 74v461h582v199h-578v86z" />
    <glyph glyph-name="uni5DF1" unicode="&#x2f30;" 
d="M140 759h672v-371h-582v-324q0 -39 31 -39h481q44 0 66 23q21 19 39 137l94 -28q-20 -136 -61 -174q-44 -44 -111 -44h-527q-106 0 -106 74v461h582v199h-578v86z" />
    <glyph glyph-name="uni5DFE" unicode="&#x5dfe;" 
d="M152 618h305v200l88 -7q25 -3 25 -13q0 -8 -20 -23v-157h340v-496q0 -69 -77 -89q-58 -16 -118 -16l-35 93l95 2q41 2 41 38v382h-246v-621h-93v621h-258v-558h-94v644h47z" />
    <glyph glyph-name="uni5DFE" unicode="&#x2f31;" 
d="M152 618h305v200l88 -7q25 -3 25 -13q0 -8 -20 -23v-157h340v-496q0 -69 -77 -89q-58 -16 -118 -16l-35 93l95 2q41 2 41 38v382h-246v-621h-93v621h-258v-558h-94v644h47z" />
    <glyph glyph-name="uni5E72" unicode="&#x5e72;" 
d="M125 763h750v-90h-321v-246h383v-94h-383v-422h-101v422h-391v94h391v246h-328v90z" />
    <glyph glyph-name="uni5E72" unicode="&#x2f32;" 
d="M125 763h750v-90h-321v-246h383v-94h-383v-422h-101v422h-391v94h391v246h-328v90z" />
    <glyph glyph-name="uni5E7A" unicode="&#xf6dd;" 
d="M503 794l81 -53q13 -10 13 -21q0 -13 -23 -16l-265 -258q91 -51 179 -113l238 238l85 -53q13 -10 13 -21q0 -15 -24 -19l-457 -409q171 10 398 31q-35 60 -77 120l66 55q93 -115 187 -297l-85 -59q-19 43 -45 95q-185 -21 -639 -64q-13 -19 -23 -19q-12 0 -14 17l-26 108
q88 4 131 6l203 203q-156 105 -326 189l71 67q10 -5 21.5 -11t25.5 -12.5t21 -10.5z" />
    <glyph glyph-name="uni5E7A" unicode="&#x5e7a;" 
d="M503 794l81 -53q13 -10 13 -21q0 -13 -23 -16l-265 -258q91 -51 179 -113l238 238l85 -53q13 -10 13 -21q0 -15 -24 -19l-457 -409q171 10 398 31q-35 60 -77 120l66 55q93 -115 187 -297l-85 -59q-19 43 -45 95q-185 -21 -639 -64q-13 -19 -23 -19q-12 0 -14 17l-26 108
q88 4 131 6l203 203q-156 105 -326 189l71 67q10 -5 21.5 -11t25.5 -12.5t21 -10.5z" />
    <glyph glyph-name="uni5E7A" unicode="&#x2f33;" 
d="M503 794l81 -53q13 -10 13 -21q0 -13 -23 -16l-265 -258q91 -51 179 -113l238 238l85 -53q13 -10 13 -21q0 -15 -24 -19l-457 -409q171 10 398 31q-35 60 -77 120l66 55q93 -115 187 -297l-85 -59q-19 43 -45 95q-185 -21 -639 -64q-13 -19 -23 -19q-12 0 -14 17l-26 108
q88 4 131 6l203 203q-156 105 -326 189l71 67q10 -5 21.5 -11t25.5 -12.5t21 -10.5z" />
    <glyph glyph-name="uni5E7F" unicode="&#xf6de;" 
d="M511 806l89 -7q25 -2 25 -13q0 -8 -20 -23v-86h328v-86h-680v-145q0 -161 -29 -292q-21 -96 -84 -243l-90 43q61 126 83 221q31 143 31 271v231h347v129z" />
    <glyph glyph-name="uni5E7F" unicode="&#x5e7f;" 
d="M511 806l89 -7q25 -2 25 -13q0 -8 -20 -23v-86h328v-86h-680v-145q0 -161 -29 -292q-21 -96 -84 -243l-90 43q61 126 83 221q31 143 31 271v231h347v129z" />
    <glyph glyph-name="uni5E7F" unicode="&#x2f34;" 
d="M511 806l89 -7q25 -2 25 -13q0 -8 -20 -23v-86h328v-86h-680v-145q0 -161 -29 -292q-21 -96 -84 -243l-90 43q61 126 83 221q31 143 31 271v231h347v129z" />
    <glyph glyph-name="uni5EF4" unicode="&#x5ef4;" 
d="M375 771q12 0 24 -9l52 -32q9 -8 9 -14q0 -15 -23 -27l-99 -184h173q-15 -256 -97 -378q-16 -23 -36 -46q31 -17 65 -26q96 -34 392 -34q54 0 118 4l-43 -98q-239 0 -378 19q-107 15 -176 48q-24 10 -45 24q-83 -65 -194 -107l-67 74q109 34 188 92q-13 11 -23 25
q-49 55 -110 204l70 27q62 -134 108 -181q8 -9 20 -19q10 10 14 15q83 89 104 275h-127l-21 -39l-82 27l136 266h-238v82h262z" />
    <glyph glyph-name="uni5EF4" unicode="&#x2f35;" 
d="M375 771q12 0 24 -9l52 -32q9 -8 9 -14q0 -15 -23 -27l-99 -184h173q-15 -256 -97 -378q-16 -23 -36 -46q31 -17 65 -26q96 -34 392 -34q54 0 118 4l-43 -98q-239 0 -378 19q-107 15 -176 48q-24 10 -45 24q-83 -65 -194 -107l-67 74q109 34 188 92q-13 11 -23 25
q-49 55 -110 204l70 27q62 -134 108 -181q8 -9 20 -19q10 10 14 15q83 89 104 275h-127l-21 -39l-82 27l136 266h-238v82h262z" />
    <glyph glyph-name="uni5EFE" unicode="&#x5efe;" 
d="M82 458h218v262q0 28 -8 74l100 -7q25 -2 25 -12q0 -17 -23 -32v-285h246v340l89 -7q24 -1 24 -13q0 -7 -19 -23v-297h211v-90h-211v-453h-94v453h-250q-6 -96 -27 -168q-23 -87 -89 -173q-48 -63 -110 -116l-82 74q64 49 101 93q57 66 81 135q23 65 32 155h-214v90z" />
    <glyph glyph-name="uni5EFE" unicode="&#x2f36;" 
d="M82 458h218v262q0 28 -8 74l100 -7q25 -2 25 -12q0 -17 -23 -32v-285h246v340l89 -7q24 -1 24 -13q0 -7 -19 -23v-297h211v-90h-211v-453h-94v453h-250q-6 -96 -27 -168q-23 -87 -89 -173q-48 -63 -110 -116l-82 74q64 49 101 93q57 66 81 135q23 65 32 155h-214v90z" />
    <glyph glyph-name="uni5F0B" unicode="&#x5f0b;" 
d="M941 556l8 -90l-483 -63q6 -60 17 -95q36 -134 133 -222q86 -73 161 -73q49 0 90 129l82 -59q-69 -172 -164 -172q-100 0 -215 86q-125 104 -172 266q-14 44 -23 128l-321 -42l-4 90l317 42q-8 111 -8 305l101 -4q20 0 20 -11q0 -15 -27 -39q0 -141 6 -239zM652 786
q96 -66 187 -160l-70 -62q-89 99 -180 164z" />
    <glyph glyph-name="uni5F0B" unicode="&#x2f37;" 
d="M941 556l8 -90l-483 -63q6 -60 17 -95q36 -134 133 -222q86 -73 161 -73q49 0 90 129l82 -59q-69 -172 -164 -172q-100 0 -215 86q-125 104 -172 266q-14 44 -23 128l-321 -42l-4 90l317 42q-8 111 -8 305l101 -4q20 0 20 -11q0 -15 -27 -39q0 -141 6 -239zM652 786
q96 -66 187 -160l-70 -62q-89 99 -180 164z" />
    <glyph glyph-name="uni5F13" unicode="&#x5f13;" 
d="M191 767h637v-305h-556q-24 -75 -51 -141h673q-15 -191 -39 -255q-18 -90 -93 -126q-66 -33 -220 -33l-31 98q179 0 218 35q32 29 59 195h-607q-3 -5 -7.5 -14l-6.5 -13h-93q81 157 129 340h531v133h-543v86z" />
    <glyph glyph-name="uni5F13" unicode="&#x2f38;" 
d="M191 767h637v-305h-556q-24 -75 -51 -141h673q-15 -191 -39 -255q-18 -90 -93 -126q-66 -33 -220 -33l-31 98q179 0 218 35q32 29 59 195h-607q-3 -5 -7.5 -14l-6.5 -13h-93q81 157 129 340h531v133h-543v86z" />
    <glyph glyph-name="uni5F50" unicode="&#xf6e0;" 
d="M183 735h617v-593h141v-90h-883v90h649v215h-524v86h524v207h-524v85z" />
    <glyph glyph-name="uni5F50" unicode="&#x5f50;" 
d="M183 735h617v-593h141v-90h-883v90h649v215h-524v86h524v207h-524v85z" />
    <glyph glyph-name="uni5F50" unicode="&#x2f39;" 
d="M183 735h617v-593h141v-90h-883v90h649v215h-524v86h524v207h-524v85z" />
    <glyph glyph-name="uni5F61" unicode="&#xf6e1;" 
d="M699 798l82 -42q11 -9 11 -21q0 -9 -31 -15q-113 -90 -197 -132q-96 -52 -287 -110l-70 70q140 38 226 77q72 31 125 66q79 50 141 107zM777 528l82 -42q12 -9 12 -20q0 -8 -32 -16q-135 -94 -230 -136q-115 -56 -336 -114l-70 71q171 41 264 79q81 31 146 68
q81 46 164 110zM800 239l86 -44q12 -7 12 -18q0 -12 -23 -12q-117 -73 -206 -116q-83 -37 -187 -71q-106 -31 -272 -63l-70 82q183 25 294 60q97 31 183 71q97 46 183 111z" />
    <glyph glyph-name="uni5F61" unicode="&#x5f61;" 
d="M699 798l82 -42q11 -9 11 -21q0 -9 -31 -15q-113 -90 -197 -132q-96 -52 -287 -110l-70 70q140 38 226 77q72 31 125 66q79 50 141 107zM777 528l82 -42q12 -9 12 -20q0 -8 -32 -16q-135 -94 -230 -136q-115 -56 -336 -114l-70 71q171 41 264 79q81 31 146 68
q81 46 164 110zM800 239l86 -44q12 -7 12 -18q0 -12 -23 -12q-117 -73 -206 -116q-83 -37 -187 -71q-106 -31 -272 -63l-70 82q183 25 294 60q97 31 183 71q97 46 183 111z" />
    <glyph glyph-name="uni5F61" unicode="&#x2f3a;" 
d="M699 798l82 -42q11 -9 11 -21q0 -9 -31 -15q-113 -90 -197 -132q-96 -52 -287 -110l-70 70q140 38 226 77q72 31 125 66q79 50 141 107zM777 528l82 -42q12 -9 12 -20q0 -8 -32 -16q-135 -94 -230 -136q-115 -56 -336 -114l-70 71q171 41 264 79q81 31 146 68
q81 46 164 110zM800 239l86 -44q12 -7 12 -18q0 -12 -23 -12q-117 -73 -206 -116q-83 -37 -187 -71q-106 -31 -272 -63l-70 82q183 25 294 60q97 31 183 71q97 46 183 111z" />
    <glyph glyph-name="uni5F73" unicode="&#x5f73;" 
d="M597 818l81 -43q13 -7 13 -20t-35 -16q-208 -181 -496 -289l-63 86q171 52 264 107q128 67 236 175zM777 720l87 -48q14 -6 14 -22q0 -14 -39 -16q-117 -114 -257 -211v-512h-102v446q-155 -96 -324 -164l-71 89q229 77 365 166q176 104 327 272z" />
    <glyph glyph-name="uni5F73" unicode="&#x2f3b;" 
d="M597 818l81 -43q13 -7 13 -20t-35 -16q-208 -181 -496 -289l-63 86q171 52 264 107q128 67 236 175zM777 720l87 -48q14 -6 14 -22q0 -14 -39 -16q-117 -114 -257 -211v-512h-102v446q-155 -96 -324 -164l-71 89q229 77 365 166q176 104 327 272z" />
    <glyph glyph-name="uni5FC3" unicode="&#x5fc3;" 
d="M152 497l95 -31q14 -6 14 -16q0 -6 -31 -15q-18 -134 -42 -232q-24 -94 -52 -167l-90 59q36 78 62 173q22 76 44 229zM296 568l109 -15q20 -3 20 -17q0 -12 -19 -28q-16 -10 -16 -34v-371q0 -47 14 -67q13 -19 60 -19h161q66 0 98 29q35 25 58 158l90 -39
q-34 -151 -81 -195q-42 -39 -103 -39h-262q-64 0 -99 40q-30 39 -30 108v489zM386 778q158 -114 266 -242l-59 -62q-123 134 -269 242zM746 521q129 -142 214 -289l-62 -67q-98 159 -219 293z" />
    <glyph glyph-name="uni5FC3" unicode="&#x2f3c;" 
d="M152 497l95 -31q14 -6 14 -16q0 -6 -31 -15q-18 -134 -42 -232q-24 -94 -52 -167l-90 59q36 78 62 173q22 76 44 229zM296 568l109 -15q20 -3 20 -17q0 -12 -19 -28q-16 -10 -16 -34v-371q0 -47 14 -67q13 -19 60 -19h161q66 0 98 29q35 25 58 158l90 -39
q-34 -151 -81 -195q-42 -39 -103 -39h-262q-64 0 -99 40q-30 39 -30 108v489zM386 778q158 -114 266 -242l-59 -62q-123 134 -269 242zM746 521q129 -142 214 -289l-62 -67q-98 159 -219 293z" />
    <glyph glyph-name="uni6208" unicode="&#x6208;" 
d="M62 603h323q-3 96 -3 215l98 -4q20 -2 20 -12q0 -14 -28 -39q0 -112 2 -160h459v-86h-456q8 -145 25 -203q8 -36 25 -75q8 5 35 25q107 82 199 194l86 -44q12 -9 12 -18q0 -12 -24 -12q-128 -128 -223 -200q-28 -20 -41 -28q26 -43 64 -77q87 -78 161 -78q43 0 79 172
l82 -55q-65 -215 -153 -215q-99 0 -213 90q-58 52 -97 115q-41 -24 -85 -46q-119 -55 -296 -108l-71 82q204 46 320 104q60 32 89 49q-15 33 -29 83q-24 78 -33 245h-327v86zM679 798q99 -48 192 -117l-67 -59q-97 73 -187 117z" />
    <glyph glyph-name="uni6208" unicode="&#x2f3d;" 
d="M62 603h323q-3 96 -3 215l98 -4q20 -2 20 -12q0 -14 -28 -39q0 -112 2 -160h459v-86h-456q8 -145 25 -203q8 -36 25 -75q8 5 35 25q107 82 199 194l86 -44q12 -9 12 -18q0 -12 -24 -12q-128 -128 -223 -200q-28 -20 -41 -28q26 -43 64 -77q87 -78 161 -78q43 0 79 172
l82 -55q-65 -215 -153 -215q-99 0 -213 90q-58 52 -97 115q-41 -24 -85 -46q-119 -55 -296 -108l-71 82q204 46 320 104q60 32 89 49q-15 33 -29 83q-24 78 -33 245h-327v86zM679 798q99 -48 192 -117l-67 -59q-97 73 -187 117z" />
    <glyph glyph-name="uni6236" unicode="&#x6236;" 
d="M855 719q-18 0 -81 -7q-232 -33 -513 -56v-88h606v-375h-94v50h-515q-1 -8 -2.5 -35.5t-2.5 -39.5q-14 -93 -52 -169q-25 -50 -73 -107l-86 58q36 39 54 65q35 52 50 110q21 84 21 247v383l62 -20q169 10 285 23q152 17 302 52l64 -68q10 -10 10 -22q0 -8 -8 -8zM261 325
h512v160h-512v-113v-47z" />
    <glyph glyph-name="uni6236" unicode="&#x2f3e;" 
d="M855 719q-18 0 -81 -7q-232 -33 -513 -56v-88h606v-375h-94v50h-515q-1 -8 -2.5 -35.5t-2.5 -39.5q-14 -93 -52 -169q-25 -50 -73 -107l-86 58q36 39 54 65q35 52 50 110q21 84 21 247v383l62 -20q169 10 285 23q152 17 302 52l64 -68q10 -10 10 -22q0 -8 -8 -8zM261 325
h512v160h-512v-113v-47z" />
    <glyph glyph-name="uni624B" unicode="&#x624b;" 
d="M800 720q-18 0 -65 -11q-72 -19 -173 -32v-152h320v-82h-320v-137h383v-82h-383v-223q0 -53 -40 -79q-34 -26 -167 -26l-39 93h97q50 0 55 28v207h-414v82h414v137h-336v82h336v141q-134 -13 -307 -13l-56 86h125q297 0 543 75l75 -79q7 -5 7 -19q0 -4 -8 -4q-15 0 -22 5
q-18 3 -25 3z" />
    <glyph glyph-name="uni624B" unicode="&#x2f3f;" 
d="M800 720q-18 0 -65 -11q-72 -19 -173 -32v-152h320v-82h-320v-137h383v-82h-383v-223q0 -53 -40 -79q-34 -26 -167 -26l-39 93h97q50 0 55 28v207h-414v82h414v137h-336v82h336v141q-134 -13 -307 -13l-56 86h125q297 0 543 75l75 -79q7 -5 7 -19q0 -4 -8 -4q-15 0 -22 5
q-18 3 -25 3z" />
    <glyph glyph-name="uni652F" unicode="&#x652f;" 
d="M457 818l88 -7q25 -3 25 -13q0 -8 -20 -23v-98h375v-82h-375v-156h188q20 15 23 15q8 0 21 -10l48 -45q9 -9 9 -19q0 -9 -31 -23q-97 -189 -217 -277q24 -12 44 -20q97 -45 329 -75l-70 -93q-208 46 -328 103q-33 16 -58 31q-149 -79 -395 -130l-63 82q173 26 257 52
q71 21 126 48q-33 25 -65 60q-85 85 -143 219h-61v82h293v156h-383v82h383v141zM318 357q47 -107 125 -179q32 -31 70 -54q22 14 36 28q82 69 152 205h-383z" />
    <glyph glyph-name="uni652F" unicode="&#x2f40;" 
d="M457 818l88 -7q25 -3 25 -13q0 -8 -20 -23v-98h375v-82h-375v-156h188q20 15 23 15q8 0 21 -10l48 -45q9 -9 9 -19q0 -9 -31 -23q-97 -189 -217 -277q24 -12 44 -20q97 -45 329 -75l-70 -93q-208 46 -328 103q-33 16 -58 31q-149 -79 -395 -130l-63 82q173 26 257 52
q71 21 126 48q-33 25 -65 60q-85 85 -143 219h-61v82h293v156h-383v82h383v141zM318 357q47 -107 125 -179q32 -31 70 -54q22 14 36 28q82 69 152 205h-383z" />
    <glyph glyph-name="uni6534" unicode="&#xf6e2;" 
d="M433 821l88 -6q25 -3 25 -13q0 -7 -19 -24v-85h379v-83h-379v-136h218q21 15 24 15q10 0 22 -9l50 -46q10 -10 10 -19q0 -11 -31 -27q-103 -206 -227 -299q12 -6 28 -13q102 -49 336 -79l-75 -97q-208 46 -333 108q-27 13 -44 24q-151 -81 -392 -132l-67 85
q164 24 262 57q64 21 117 45q-43 33 -78 72q-87 88 -147 233h-64v82h297v347zM298 392q48 -114 128 -191q32 -32 83 -65q24 18 45 36q84 72 156 220h-412z" />
    </font>
</defs>
</svg>
